Other

Aloo Chat (2009) Hindi DvdRip Xvid ~ Smeet

  • Download 5x Faster
  • Download torrent
  • Direct Download
  • Rate this torrent +  |  -
Aloo Chat (2009) Hindi DvdRip Xvid ~ Smeet

Download FREE And Anonymously


Torrent info

Name:Aloo Chat (2009) Hindi DvdRip Xvid ~ Smeet

Total Size: 702.89 MB

Magnet: Magnet Link

Seeds: 0

Leechers: 1

Stream: Watch Full Movie @ Movie4u

Last Updated: 2015-08-28 11:51:55 (Update Now)

Torrent added: 2009-08-30 21:25:00



VPN For Torrents

Torrent Files List


Aloo chatAloo Chat (2009) Hindi-DvdRip-Xvid ~ Smeet.avi (Size: 702.89 MB) (Files: 3)

 Aloo chatAloo Chat (2009) Hindi-DvdRip-Xvid ~ Smeet.avi

702.77 MB

 Aloo chatAloo Chat (2009) Hindi-DvdRip-Xvid ~ Smeet.srt

118.07 KB

 smeet.nfo

6.96 KB
 

tracker

leech seeds
 

Torrent description


################## TM
##^^^^^^^^^^^^^^^^####
############## #^^^^^^^^^^^^^^^^^^^##
###### #### #########^^^^^# #^^^^^#########^^^^^#
###### ####### ###########^^^# #^^^^^^^^^^^^^#^^^^^#
####### ####### ############^^## #^^^^^^^^^^^^^#^^^^^#
################################# ############^^^###^^^^^^^^^^^^^#^^^^^#
############################################^#^^#^^^^^^^^^^^^^^^^#^^^^^#
#####################################^^^^^^^^#^^#########^^^#######^^^^#####
####################################^^^^^^^^^##^^^^^^^^^##^^#^^^^^^^^^^^^^^##
####################################^^^^^^^^^^###^^^^^^^^#^^#^^^^^^^^^^^^^^^##
######################### ##########^^^^^####^^##^^^^^^^^#^^#^^^^^^^^^^^^^^^##
####################################^########^^#^#########^^######^^^^^######
#############################################^^#^#^^^^^^^^^^^^^^^#^^^^^#
##############################################^#^#^^^^^^^^^^^^^^^#^^^^^#
##############################################^#^#^^^^^^^^^^^^^^^#^^^^^#
##################################^^^^^^^^^^#^#^^^^^^^^^^^^^^^#^^^^^#
############################################^^^#^##^^^^^^^^^^^^^^#^^^^^#
##############################################^#^^^###^^^^^^^^^^^#^^^^^#
#################################################^^^^#^^^^^^^^^^^#^^^^^#
###############################################^######^^^^^^^^^^^#^^^^^#
###################### ###### ##############^^^^^^^^^^^########^^^^^#
###################### ###### ##############^^##^^^^^^^# #^^^^^^#
###################### ###### ##################^^^^^^^# #^^^^^^#
############## ############### ######^^# ########
############## ############### ###
#############
MEANS QUALITY

=================================================
= Aloo Chat (2005) =
=================================================

|##############################################################################|
| |
|GENERAL INFORMATION |
|=================== |
|Format : AVI |
|Format/Info : Audio Video Interleave |
|Format profile : OpenDML |
|File size : 702 MiB |
|Duration : 1h 50mn |
|Overall bit rate : 886 Kbps |
|Writing application : AVI-Mux GUI 1.17.7, Aug 8 2006 20:59:17 |
|SUBTITLE : NO |
|GENRE : DRAMA |
|IMDB LINK : http://www.imdb.com/title/tt1305840/ |
|IMDB RATING : 6.3/10 |
|RIPPER : SMEET |
|##############################################################################|

|##############################################################################|
| |
|Video |
|Format : MPEG-4 Visual |
|Format settings, Matrix : Default (H.263) |
|Codec ID : XVID |
|Codec ID/Hint : XviD |
|Duration : 1h 50mn |
|Bit rate : 755 Kbps |
|Width : 640 pixels |
|Height : 272 pixels |
|Display aspect ratio : 2.35 |
|Frame rate : 23.976 fps |
|Resolution : 24 bits |
|Colorimetry : 4:2:0 |
|Scan type : Progressive |
|Bits/(Pixel*Frame) : 0.181 |
|Stream size : 598 MiB (85%) |
|Writing library : XviD 1.2.1 (UTC 2008-12-04) rter. |
|##############################################################################|
|Audio |
|Format : MPEG Audio |
|Format version : Version 1 |
|Format profile : Layer 3 |
|Codec ID : 55 |
|Codec ID/Hint : MP3 |
|Duration : 1h 50mn |
|Bit rate mode : Constant |
|Bit rate : 128 Kbps |
|Channel(s) : 2 channels |
|Sampling rate : 48.0 KHz |
|Resolution : 16 bits |
|Stream size : 101 MiB (14%) |
|Alignment : Aligned on interleaves |
|Interleave, duration : 893 ms (21.42 video frames) |
|Interleave, preload duration : 216 ms |
|Title : dgind T80 3_2ch 448Kbps DELAY 0ms |
|Writing library : LAME3.98r |
|Encoding settings : -m j -V 4 -q 2 -lowpass 17 -b 128 |
|##############################################################################|








related torrents

Torrent name

health leech seeds Size
 


comments (0)

Main Menu

 

script data-cfasync="false" src="//d2ghscazvn398x.cloudfront.net/?cshgd=690275">