Other

99(2009)Hindi DVDRip XviD ~ Smeet

  • Download 5x Faster
  • Download torrent
  • Direct Download
  • Rate this torrent +  |  -
99(2009)Hindi DVDRip XviD ~ Smeet

Free and Direct Download with Usenet.nl 300GB+ free


Torrent info

Name:99(2009)Hindi DVDRip XviD ~ Smeet

Total Size: 699.93 MB

Magnet: Magnet Link

Seeds: 0

Leechers: 0

Stream: Watch Online @ Movie4u

Last Updated: 0000-00-00 00:00:00 (Update Now)

Torrent added: 2009-08-30 21:22:13





Torrent Files List


99(2009)Hindi-DVDRip-XviD ~ Smeet.avi (Size: 699.93 MB) (Files: 3)

 99(2009)Hindi-DVDRip-XviD ~ Smeet.avi

699.81 MB

 99(2009)Hindi-DVDRip-XviD ~ Smeet.srt

116.73 KB

 smeet.nfo

6.98 KB
 

Announce URL:

Torrent description


################## TM
##^^^^^^^^^^^^^^^^####
############## #^^^^^^^^^^^^^^^^^^^##
###### #### #########^^^^^# #^^^^^#########^^^^^#
###### ####### ###########^^^# #^^^^^^^^^^^^^#^^^^^#
####### ####### ############^^## #^^^^^^^^^^^^^#^^^^^#
################################# ############^^^###^^^^^^^^^^^^^#^^^^^#
############################################^#^^#^^^^^^^^^^^^^^^^#^^^^^#
#####################################^^^^^^^^#^^#########^^^#######^^^^#####
####################################^^^^^^^^^##^^^^^^^^^##^^#^^^^^^^^^^^^^^##
####################################^^^^^^^^^^###^^^^^^^^#^^#^^^^^^^^^^^^^^^##
######################### ##########^^^^^####^^##^^^^^^^^#^^#^^^^^^^^^^^^^^^##
####################################^########^^#^#########^^######^^^^^######
#############################################^^#^#^^^^^^^^^^^^^^^#^^^^^#
##############################################^#^#^^^^^^^^^^^^^^^#^^^^^#
##############################################^#^#^^^^^^^^^^^^^^^#^^^^^#
##################################^^^^^^^^^^#^#^^^^^^^^^^^^^^^#^^^^^#
############################################^^^#^##^^^^^^^^^^^^^^#^^^^^#
##############################################^#^^^###^^^^^^^^^^^#^^^^^#
#################################################^^^^#^^^^^^^^^^^#^^^^^#
###############################################^######^^^^^^^^^^^#^^^^^#
###################### ###### ##############^^^^^^^^^^^########^^^^^#
###################### ###### ##############^^##^^^^^^^# #^^^^^^#
###################### ###### ##################^^^^^^^# #^^^^^^#
############## ############### ######^^# ########
############## ############### ###
#############
MEANS QUALITY

=======================================================
= 99 (2009) =
=======================================================

|##############################################################################|
| |
|GENERAL INFORMATION |
|=================== |
|Format : AVI |
|Format/Info : Audio Video Interleave |
|Format profile : OpenDML |
|File size : 700 MiB |
|Duration : 2h 13mn |
|Overall bit rate : 734 Kbps |
|Language : Hindi (Indian/pakistani viewrs) |
|SUBTITLE : English |
|GENRE : Comedy |
|IMDB LINK : http://www.imdb.com/title/tt1370429/ |
|IMDB RATING : 7.6/10 |
|RIPPER : SMEET |
|##############################################################################|

|##############################################################################|
| |
|Video |
|Format : MPEG-4 Visual |
|Format settings, Matrix : Default (H.263) |
|Codec ID : XVID |
|Codec ID/Hint : XviD |
|Duration : 2h 13mn |
|Width : 640 pixels |
|Height : 272 pixels |
|Display aspect ratio : 2.35 |
|Frame rate : 29.970 fps |
|Resolution : 24 bits |
|Colorimetry : 4:2:0 |
|Scan type : Progressive |
|Bits/(Pixel*Frame) : 0.118 |
|Stream size : 589 MiB (84%) |
|Writing library : XviD 1.2.1 (UTC 2008-12-04) rter. |
|##############################################################################|
|Audio |
|Format : MPEG Audio |
|Format version : Version 1 |
|Format profile : Layer 3 |
|Codec ID : 55 |
|Codec ID/Hint : MP3 |
|Duration : 2h 13mn |
|Bit rate mode : Constant |
|Bit rate : 112 Kbps |
|Channel(s) : 2 channels |
|Sampling rate : 44.1 KHz |
|Resolution : 16 bits |
|Stream size : 107 MiB (15%) |
|Alignment : Aligned on interleaves |
|Interleave, duration : 936 ms (28.07 video frames) |
|Interleave, preload duration : 208 ms |
|Title : smeet_99 T80 3_2ch 448Kbps DELAY 0ms |
|Writing library : LAME3.98r |
|Encoding settings : -m j -V 4 -q 2 -lowpass 15.6 -b 112 |
| www.ahashare.com |
##############################################################################










related torrents

Torrent name

health leech seeds Size
 

comments (0)

Main Menu