Other

THE END CONFESSIONS OF A COCKNEY [email protected] H 264 RIP[ENG]

  • Download 5x Faster
  • Download torrent
  • Direct Download
  • Rate this torrent +  |  -

Torrent info

Name:THE END CONFESSIONS OF A COCKNEY [email protected] H 264 RIP[ENG]

Total Size: 789.87 MB

Magnet: Magnet Link

Seeds: 0

Leechers: 0

Stream: Watch Online @ Movie4u

Last Updated: 2011-11-06 19:51:32 (Update Now)

Torrent added: 2009-08-30 21:15:34





Torrent Files List


8349466x.jpg (Size: 789.87 MB) (Files: 3)

 8349466x.jpg

26.32 KB

 te.mp4

789.84 MB

 Torrent downloaded from Demonoid.com.txt

0.05 KB
 

Announce URL:

Torrent description

Against the backdrop of the East End of London, first time filmmaker Nicola Collins (Snatch) explores the fascinating complexity of the lives of her father and his friends; infamous criminals that shaped their war torn environment into a violent underworld.

The End is a story never before been told of a group of men with a common bond. All born in the East End of London into poverty, striving for a better life and all found that life in crime. Unashamed and unapologetic, these men live their lives defined by a code of terror.

Format : MPEG-4
Format profile : Base Media / Version 2
Codec ID : mp42
File size : 790 MiB
Duration : 1h 17mn
Overall bit rate : 1 423 Kbps
Encoded date : UTC 2009-06-13 07:18:25
Tagged date : UTC 2009-06-13 12:02:56
Writing application : HandBrake 0.9.3 2008112300

Video
Format : AVC
Format/Info : Advanced Video Codec
Format profile : [email protected]
Format settings, CABAC : Yes
Format settings, ReFrames : 3 frames
Codec ID : avc1
Codec ID/Info : Advanced Video Coding
Duration : 1h 17mn
Bit rate mode : Variable
Bit rate : 1 260 Kbps
Nominal bit rate : 1 278 Kbps
Width : 720 pixels
Height : 576 pixels
Display aspect ratio : 16/9
Frame rate mode : Variable
Frame rate : 25.000 fps
Minimum frame rate : 12.500 fps
Maximum frame rate : 25.000 fps
Standard : PAL
Resolution : 24 bits
Colorimetry : 4:2:0
Scan type : Progressive
Bits/(Pixel*Frame) : 0.122
Stream size : 699 MiB (89%)
Writing library : x264 core 65


Audio
Format : AAC
Format/Info : Advanced Audio Codec
Format version : Version 4
Format profile : LC
Format settings, SBR : No
Codec ID : 40
Duration : 1h 17mn
Bit rate mode : Variable
Bit rate : 160 Kbps
Maximum bit rate : 251 Kbps
Channel(s) : 2 channels
Channel positions : L R
Sampling rate : 48.0 KHz
Resolution : 16 bits
Stream size : 88.8 MiB (11%)
Language : English
Encoded date : UTC 2009-06-13 07:18:25
Tagged date : UTC 2009-06-13 12:02:54

related torrents

Torrent name

health leech seeds Size
 

comments (0)

Main Menu