Sports related

Australian Football League 2009 Round 22 Port Adelaide VS North Melbourne 29 08 2009

  • Download 5x Faster
  • Download torrent
  • Direct Download
  • Rate this torrent +  |  -

Torrent info

Name:Australian Football League 2009 Round 22 Port Adelaide VS North Melbourne 29 08 2009

Total Size: 1.37 GB

Magnet: Magnet Link

Seeds: 0

Leechers: 0

Stream: Watch Online @ Movie4u

Last Updated: 2015-04-03 23:52:09 (Update Now)

Torrent added: 2009-08-30 20:35:49



VPN For Torrents

Torrent Files List


Port VS North Melbourne.avi (Size: 1.37 GB) (Files: 4)

 Port VS North Melbourne.avi

1.37 GB

 poster.png

289.25 KB

 02.jpg

40.40 KB

 01.jpg

39.63 KB
 

tracker

leech seeds
 

Torrent description

Australian Football League 2009   Round 22   Port Adelaide VS North Melbourne   29 08 2009 preview 0


Australian Football League 2009   Round 22   Port Adelaide VS North Melbourne   29 08 2009 preview 1




General
Complete name : Port VS North Melbourne.avi
Format : AVI
Format/Info : Audio Video Interleave
File size : 1.37 GiB
Duration : 1h 58mn
Overall bit rate : 1 647 Kbps
Writing application : VirtualDubMod 1.5.4.1 (build 2178/release)
Writing library : VirtualDubMod build 2178/release

Video
ID : 0
Format : MPEG-4 Visual
Format profile : Streaming [email protected]
Format settings, BVOP : Yes
Format settings, QPel : No
Format settings, GMC : No warppoints
Format settings, Matrix : Default (H.263)
Muxing mode : Packed bitstream
Codec ID : XVID
Codec ID/Hint : XviD
Duration : 1h 58mn
Bit rate : 1 448 Kbps
Width : 720 pixels
Height : 400 pixels
Display aspect ratio : 16/9
Frame rate : 25.000 fps
Resolution : 24 bits
Colorimetry : 4:2:0
Scan type : Progressive
Bits/(Pixel*Frame) : 0.201
Stream size : 1.20 GiB (88%)
Writing library : XviD 1.2.1 (UTC 2008-12-04)

Audio
ID : 1
Format : MPEG Audio
Format version : Version 1
Format profile : Layer 3
Codec ID : 55
Codec ID/Hint : MP3
Duration : 1h 58mn
Bit rate mode : Constant
Bit rate : 192 Kbps
Channel(s) : 2 channels
Sampling rate : 44.1 KHz
Resolution : 16 bits
Stream size : 163 MiB (12%)
Alignment : Split accross interleaves
Interleave, duration : 80 ms (2.00 video frames)
Interleave, preload duration : 500 ms

related torrents

Torrent name

health leech seeds Size
 


comments (0)

Main Menu