Anime - Other

H N H König der Wellen

  • Download 5x Faster
  • Download torrent
  • Direct Download
  • Rate this torrent +  |  -
H N H König der Wellen

Anonymous and Direct Download 300GB+ free


Torrent info

Name:H N H König der Wellen

Total Size: 698.06 MB

Magnet: Magnet Link

Seeds: 0

Leechers: 0

Stream: Watch Online @ Movie4u

Last Updated: 2011-02-04 01:50:39 (Update Now)

Torrent added: 2008-08-16 09:33:16




Torrent Files List


König der wellen.avi (Size: 698.06 MB) (Files: 1)

 König der wellen.avi

698.06 MB
 

Announce URL:

Torrent description

auf nach pin gu eiland

Pinguin Cody (deutsche Stimme: Robert Stadlober) hat nur einen Wunsch: Er will Surf-Weltmeister werden. Egal wie hoch die Wellen sind, er will auf ihnen davongleiten. Als er von den Weltmeisterschaften in Pin Gu Eiland erfährt, weiß er was zu tun ist. Gemeinsam mit dem erfahrenen Surfer "Freak" und der schönen Rettungsschwimmerin Lani (Jessica Schwarz), in die er heimlich verliebt ist, tritt er gegen die Profis an. Das gefällt einem ganz und gar nicht: Super-Profi Tank.


Video
Format : MPEG-4 Visual
Format profile : Streaming [email protected]
Format settings, BVOP : Ja
Format settings, QPel : Nein
Format settings, GMC : No warppoints
Format settings, Matrix : Default
Muxing mode : Packet Bitstream
Codec ID : XVID
Codec ID/Hint : XviD
Duration : 1h 22min
Bitrate : 1053 Kbps
Breite : 672 Pixel
Höhe : 352 Pixel
Bildseitenverhältnis : 1.909
Bildwiederholungsrate : 25.000 FPS
Auflösung : 8 bits
Colorimetry : 4:2:0
Scan type : Progressive
Bits/(Pixel*Frame) : 0.178
Stream size : 618 MiB (89)
verwendete Encoder-Bibliothek : XviD 1.1.2 (UTC 2006-11-01)

Audio
Format : MPEG Audio
Format version : Version 1
Format profile : Layer 3
Codec ID : 55
Codec ID/Hint : MP3
Duration : 1h 22min
Bitraten-Modus : Variable
Bitrate : 124 Kbps
Kanäle : 2 Kanäle
Samplingrate : 44.1 KHz
Auflösung : 16 bits
Stream size : 72.9 MiB (10)
Alignment : Aligned on interleaves
Interleave, duration : 26 ms (0.65 video frame)
Interleave, preload duration : 536 ms


Unsere URL http://h-n-h.ath.cx

related torrents

Torrent name

health leech seeds Size

Der König der Löwen

1 0 4.34 GB 0
 


comments (0)

Main Menu