Anime - Other

Bee Movie Das Honigkomplott

  • Download 5x Faster
  • Download torrent
  • Direct Download
  • Rate this torrent +  |  -
Bee Movie Das Honigkomplott

Anonymous and Free Direct Download


Torrent info

Name:Bee Movie Das Honigkomplott

Total Size: 699.48 MB

Magnet: Magnet Link

Seeds: 1

Leechers: 0

Stream: Watch Online @ Movie4u

Last Updated: 2010-06-18 00:20:18 (Update Now)

Torrent added: 2008-08-16 09:33:16



VPN For Torrents

Torrent Files List


Bee movie.avi (Size: 699.48 MB) (Files: 1)

 Bee movie.avi

699.48 MB
 

Announce URL: http://h-n-h.ath.cx/announce.php

Torrent description


Der Drohn Barry B. Benson hat gerade seine College-Ausbildung abgeschlossen und steht vor dem Eintritt in das Berufsleben. Der einzige Beruf, den er ergreifen kann, ist die Arbeit in der Honigfabrik Honex. Da Barry jedoch nicht sein Leben lang dort arbeiten will, verlässt er den Bienenstock, um die Welt zu erkunden. Dort bricht er das eiserne Gebot des Schweigens gegenüber den Menschen, indem er sich mit der Floristin Vanessa anfreundet.

Von ihr erfährt er, dass die Menschen seit Jahrhunderten den Honig essen, für den die Bienen so hart arbeiten müssen. Mit Vanessas Hilfe verklagt er erfolgreich die Honigproduzenten. Dadurch haben die Bienen plötzlich einen immensen Honigüberschuss und stellen ihre Arbeit ein. Dies führt wiederum dazu, dass die Blumen nicht bestäubt werden und beinahe aussterben.

Barry gelingt es, die Bienen von der großen Bedeutung ihrer Arbeit zu überzeugen. Er lässt sich schließlich in Vanessas Blumengeschäft nieder, wo er eine Anwaltskanzlei eröffnet.

Video
Format : MPEG-4 Visual
Format profile : Streaming [email protected]
Format settings, BVOP : Ja
Format settings, QPel : Nein
Format settings, GMC : No warppoints
Format settings, Matrix : Default
Codec ID : XVID
Codec ID/Hint : XviD
Duration : 1h 30min
Bitrate : 916 Kbps
Breite : 592 Pixel
Höhe : 320 Pixel
Bildseitenverhältnis : 1.850
Bildwiederholungsrate : 23.976 FPS
Auflösung : 8 bits
Colorimetry : 4:2:0
Scan type : Progressive
Bits/(Pixel*Frame) : 0.202
Stream size : 594 MiB (85)
verwendete Encoder-Bibliothek : XviD 1.2.0SMP (UTC 2006-01-08)

Audio
Format : MPEG Audio
Format version : Version 1
Format profile : Layer 3
Codec ID : 55
Codec ID/Hint : MP3
Duration : 1h 30min
Bitraten-Modus : Variable
Bitrate : 151 Kbps
Kanäle : 2 Kanäle
Samplingrate : 48.0 KHz
Auflösung : 16 bits
Stream size : 97.6 MiB (14)
Alignment : Aligned on interleaves
Interleave, duration : 24 ms (0.58 video frame)
Interleave, preload duration : 127 ms




Unsere URL http://h-n-h.ath.cx

related torrents

Torrent name

health leech seeds Size
 


comments (0)

Main Menu