Asian

[DTF] Golden Boy German XviD DVD RIP GameLounge

  • Download 5x Faster
  • Download torrent
  • Direct Download
  • Rate this torrent +  |  -
[DTF] Golden Boy German XviD DVD RIP GameLounge

Anonymous and Free Direct Download 300GB+


Torrent info

Name:[DTF] Golden Boy German XviD DVD RIP GameLounge

Total Size: 2.34 GB

Magnet: Magnet Link

Seeds: 0

Leechers: 0

Stream: Watch Online @ Movie4u

Last Updated: 2012-03-30 18:14:38 (Update Now)

Torrent added: 2009-08-30 20:08:46



VPN For Torrents

Torrent Files List


Golden.Boy.German.XviD.DVD-RIP-GameLounge.in.nfo (Size: 2.34 GB) (Files: 7)

 Golden.Boy.German.XviD.DVD-RIP-GameLounge.in.nfo

3.24 KB

 Golden.Boy.L01.Die.Computerliebe.German.XviD.DVD-RIP-GameLounge.in.avi

399.27 MB

 Golden.Boy.L02.Das.raffinierte.Biest.REMAKE.German.XviD.DVD-RIP-GameLounge.in.avi

399.45 MB

 Golden.Boy.L03.Die.gefährliche.Liebe.German.XviD.DVD-RIP-GameLounge.in.avi

399.30 MB

 Golden.Boy.L04.Feuchte.Träume.German.XviD.DVD-RIP-GameLounge.in.avi

399.50 MB

 Golden.Boy.L05.Die.Motorradbraut.German.XviD.DVD-RIP-GameLounge.in.avi

399.51 MB

 Golden.Boy.L06.Die.letzte.Liebe.German.XviD.DVD-RIP-GameLounge.in.avi

399.46 MB
 

Announce URL:

Torrent description

Golden Boy Lession 1-6


Plot:


Kintaro Oe, 25 Jahre alt, macht als Student der juristischen Fakultät von Tokyo sein Diplom mit Auszeichung. Um anschließend in der "Schule des Lebens" zu lernen, wechselt er von einem Job zum anderen.
Dabei durchstreift er Japan mit seinem treuen Mountainbike. Vergesst Kintaro nicht, denn eines schönen Tages wird Kintaro, ein junger Mann wie du und ich, nicht nur Japan sondern die ganze Welt retten...

Ja, das ist unser Kintaro ein 25-jähriger Mountainbiker, der durch das Land fährt und während seiner Reise in der "Schule des Lebens" wertvolle und interresante Erkenntnisse sammelt.
Er verweilt dabei in verscheidenen Städten, um sich einerseits zu erholen und andererseits zu arbeiten.
In erster Linie arbeit er um Geld zu verdienen, aber das Geld spielt für ihn dabei keine wichtige Rolle.
Sein eigentliches Ziel ist immer noch das Sammeln von Erfahrungen. In seinem Job lernt er in jeder Episode eine Frau kennen.
Der Job ist nun völlig nebensächlich, teilweise verlangt er auch überhaupt keine Bezahlung. Er besitzt einen riesigen Ehrgeiz und möchte das Objekt seiner Begierde erobern.
Dabei macht er wirklich alles. Zu Anfang jeder Episode halten die Frauen Kintaro für einen typisch sexistischen und dummen Jungen.
Doch je länger sie ihn kennen, desto mehr mögen sie ihn und es kommt schließlich dazu, dass die Frauen völlig verrückt nach ihm sind.
Aber Kintaro zieht weiter durchs Land um immer mehr Erfahrungen zu sammeln. Das macht ihn zu etwas besonderem. Zu einem GOLDEN BOY...



Movie Beschreibung:

Video
Format : MPEG-4 Visual
Format profile : Streaming [email protected]
Format settings, BVOP : Ja
Format settings, QPel : Nein
Format settings, GMC : No warppoints
Format settings, Matrix : Default
Muxing mode : Packet Bitstream
Codec ID : XVID
Codec ID/Hint : XviD
Duration : 25min
Bitrate : 2050 Kbps
Breite : 688 Pixel
Höhe : 560 Pixel
Bildseitenverhältnis : 4/3
Bildwiederholungsrate : 25.000 FPS
Auflösung : 8 bits
Colorimetry : 4:2:0
Scan type : Progressive
Bits/(Pixel*Frame) : 0.213
Stream size : 369 MiB (92%)
verwendete Encoder-Bibliothek : XviD 1.1.2 (UTC 2006-11-01)

Audio
Format : MPEG Audio
Format version : Version 1
Format profile : Layer 3
Codec ID : 55
Codec ID/Hint : MP3
Duration : 25min
Bitraten-Modus : Constant
Bitrate : 160 Kbps
Kanäle : 2 Kanäle
Samplingrate : 48.0 KHz
Auflösung : 16 bits
Stream size : 28.8 MiB (7%)
Alignment : Aligned on interleaves
Interleave, duration : 40 ms (1.00 video frame)
Interleave, preload duration : 504 ms


Encoded 4 www.GameLounge.in

Visit Us

related torrents

Torrent name

health leech seeds Size
 


comments (0)

Main Menu