Asian

[DesiNeedz Com]Life Partner 2009 1 CD Rip XVID Team DUS

  • Download 5x Faster
  • Download torrent
  • Direct Download
  • Rate this torrent +  |  -
[DesiNeedz Com]Life Partner 2009 1 CD Rip XVID Team DUS

Free and Direct Download with Usenet.nl 300GB+ free


Torrent info

Name:[DesiNeedz Com]Life Partner 2009 1 CD Rip XVID Team DUS

Total Size: 692.42 MB

Magnet: Magnet Link

Seeds: 0

Leechers: 0

Stream: Watch Online @ Movie4u

Last Updated: 2011-04-03 21:42:18 (Update Now)

Torrent added: 2009-08-30 20:07:54





Torrent Files List


[DesiNeedz.Com]Life.Partner.2009.1.CD.Rip.XVID.avi (Size: 692.42 MB) (Files: 1)

 [DesiNeedz.Com]Life.Partner.2009.1.CD.Rip.XVID.avi

692.42 MB
 

Announce URL:

Torrent description

Life Partner (2009) - 1CD - CamRip - XviD - Mp3 - Team~DUS


[DesiNeedz Com]Life Partner 2009 1 CD Rip XVID Team DUS preview 0

[DesiNeedz Com]Life Partner 2009 1 CD Rip XVID Team DUS preview 1




General
Format : AVI
Format/Info : Audio Video Interleave
Format profile : OpenDML
File size : 700 MiB
Duration : 1h 34mn
Overall bit rate : 1 031 Kbps
Writing application : AVI-Mux GUI 1.17.7, Aug 8 2006 20:59:17
Video
Format : MPEG-4 Visual
Format profile : Streaming
Format settings, BVOP : Yes
Format settings, QPel : No
Format settings, GMC : No warppoints
Format settings, Matrix : Default (H.263)
Codec ID : XVID
Codec ID/Hint : XviD
Duration : 1h 34mn
Bit rate : 932 Kbps
Width : 640 pixels
Height : 272 pixels
Display aspect ratio : 2.35
Frame rate : 25.000 fps
Resolution : 24 bits
Colorimetry : 4:2:0
Scan type : Progressive
Bits/(Pixel*Frame) : 0.214
Stream size : 633 MiB (90%)
Writing library : XviD 1.2.1 (UTC 2008-12-04)
Audio
Format : MPEG Audio
Format version : Version 1
Format profile : Layer 2
Codec ID : 50
Codec ID/Hint : MP1
Duration : 1h 34mn
Bit rate mode : Constant
Bit rate : 96.0 Kbps
Channel(s) : 2 channels
Sampling rate : 48.0 KHz
Resolution : 16 bits
Stream size : 65.2 MiB (9%)
Alignment : Aligned on interleaves
Interleave, duration : 820 ms (20.49 Video frames)
Interleave, preload duration : 216 msSAMPLE

related torrents

Torrent name

health leech seeds Size
 

comments (0)

Main Menu