Asian

[bwtorrents com] Karzz 2008 ~ 1CD PDVD RIP ~ E SUB ~ Jay78 ~ Team DUS

  • Download 5x Faster
  • Download torrent
  • Direct Download
  • Rate this torrent +  |  -

Torrent info

Name:[bwtorrents com] Karzz 2008 ~ 1CD PDVD RIP ~ E SUB ~ Jay78 ~ Team DUS

Total Size: 697.46 MB

Magnet: Magnet Link

Seeds: 0

Leechers: 0

Stream: Watch Online @ Movie4u

Last Updated: 2016-01-30 06:17:51 (Update Now)

Torrent added: 2009-08-30 20:06:51



VPN For Torrents

Torrent Files List


Karzz 2008 ~ 1CD PDVD RIP ~ E-SUB ~ Jay78 ~ Team DUS.avi (Size: 697.46 MB) (Files: 2)

 Karzz 2008 ~ 1CD PDVD RIP ~ E-SUB ~ Jay78 ~ Team DUS.avi

697.39 MB

 Karzz 2008 ~ 1CD PDVD RIP ~ E-SUB ~ Jay78 ~ Team DUS.srt

70.94 KB
 

tracker

leech seeds
 

Torrent description

Video
Format : MPEG-4 Visual
Format profile : Streaming [email protected]
Format settings, BVOP : Yes
Format settings, QPel : No
Format settings, GMC : No warppoints
Format settings, Matrix : Default
Codec ID : XVID
Codec ID/Hint : XviD
Duration : 2h 20mn
Bit rate : 562 Kbps
Width : 672 pixels
Height : 224 pixels
Display aspect ratio : 3.000
Frame rate : 23.976 fps
Resolution : 8 bits
Colorimetry : 4:2:0
Scan type : Progressive
Bits/(Pixel*Frame) : 0.156
Stream size : 565 MiB (81%)

Audio
Format : MPEG Audio
Format version : Version 1
Format profile : Layer 3
Codec ID : 55
Codec ID/Hint : MP3
Bit rate mode : Constant
Bit rate : 128 Kbps
Channel(s) : 2 channels
Sampling rate : 44.1 KHz
Resolution : 16 bits
Stream size : 129 MiB (18%)
Title : mp3 vts

Screen Shots
[bwtorrents com] Karzz 2008 ~ 1CD PDVD RIP ~ E SUB ~ Jay78 ~ Team DUS preview 0
[bwtorrents com] Karzz 2008 ~ 1CD PDVD RIP ~ E SUB ~ Jay78 ~ Team DUS preview 1
[bwtorrents com] Karzz 2008 ~ 1CD PDVD RIP ~ E SUB ~ Jay78 ~ Team DUS preview 2
[bwtorrents com] Karzz 2008 ~ 1CD PDVD RIP ~ E SUB ~ Jay78 ~ Team DUS preview 3
[bwtorrents com] Karzz 2008 ~ 1CD PDVD RIP ~ E SUB ~ Jay78 ~ Team DUS preview 4
[bwtorrents com] Karzz 2008 ~ 1CD PDVD RIP ~ E SUB ~ Jay78 ~ Team DUS preview 5
[bwtorrents com] Karzz 2008 ~ 1CD PDVD RIP ~ E SUB ~ Jay78 ~ Team DUS preview 6
[bwtorrents com] Karzz 2008 ~ 1CD PDVD RIP ~ E SUB ~ Jay78 ~ Team DUS preview 7

Audio- 10 And Video-10





related torrents

Torrent name

health leech seeds Size
 


comments (0)

Main Menu