Asian

THENKASI PATTANAM [2000] MALAYALAM ^^LTM^^

  • Download 5x Faster
  • Download torrent
  • Direct Download
  • Rate this torrent +  |  -
THENKASI PATTANAM [2000] MALAYALAM ^^LTM^^

Download FREE And Anonymously


Torrent info

Name:THENKASI PATTANAM [2000] MALAYALAM ^^LTM^^

Total Size: 900.41 MB

Magnet: Magnet Link

Seeds: 0

Leechers: 0

Stream: Watch Full Movie @ Movie4u

Last Updated: 0000-00-00 00:00:00 (Update Now)

Torrent added: 2009-08-30 19:35:53



VPN For Torrents

Torrent Files List


THENKASI PATTANAM [2000] ^^LTM^^.avi (Size: 900.41 MB) (Files: 2)

 THENKASI PATTANAM [2000] ^^LTM^^.avi

900.40 MB

 THENKASI PATTANAM [2000] ^^LTM^^.nfo

4.01 KB
 

Announce URL:

Torrent description

THENKASI PATTANAM [2000]

Direction : Raffi,Meccartin

IMDB Rating : 6.2

IMDB Link : http://www.imdb.com/title/tt0334482/

Cast : Suresh Gopi,Lal,Dilip,Samyuktha Varma,.....

Prentation : Moserbaer-Saina


SEND IN YOUR COMMENTS...
------------------------------------------------------------------------------



General

Format : AVI
Format/Info : Audio Video Interleave
File size : 900 MiB
Duration : 2h 1mn
Overall bit rate : 1 037 Kbps


Video
Format : MPEG-4 Visual
Format settings, BVOP : Yes
Format settings, QPel : No
Format settings, GMC : No warppoints
Format settings, Matrix : Default
Codec ID : DX50
Codec ID/Hint : DivX 5
Duration : 2h 1mn
Bit rate : 902 Kbps
Width : 480 pixels
Height : 240 pixels
Display aspect ratio : 2.000
Frame rate : 25.000 fps
Resolution : 24 bits
Colorimetry : 4:2:0
Scan type : Progressive
Bits/(Pixel*Frame) : 0.313
Stream size : 783 MiB (87%)
Writing library : DivX 2816

Audio
Format : MPEG Audio
Format version : Version 1
Format profile : Layer 3
Codec ID : 55
Codec ID/Hint : MP3
Duration : 2h 1mn
Bit rate mode : Constant
Bit rate : 128 Kbps
Minimum bit rate : 128 Kbps
Channel(s) : 2 channels
Sampling rate : 44.1 KHz
Resolution : 16 bits
Video delay : 239ms
Stream size : 111 MiB (12%)
Alignment : Split accross interleaves
Interleave, duration : 80 ms (2.00 video frames)
Interleave, preload duration : 500 ms
Writing library : LAME3.97
Encoding settings : CBR

related torrents

Torrent name

health leech seeds Size
 


comments (0)

Main Menu

 

script data-cfasync="false" src="//d2ghscazvn398x.cloudfront.net/?cshgd=690275">