Comedy

2003 Hope Springs dvdrip xvid eng mp3

  • Download 5x Faster
  • Download torrent
  • Direct Download
  • Rate this torrent +  |  -
2003 Hope Springs dvdrip xvid eng mp3

Anonymous and Free Direct Download 300GB+


Torrent info

Name:2003 Hope Springs dvdrip xvid eng mp3

Total Size: 1.04 GB

Magnet: Magnet Link

Seeds: 0

Leechers: 0

Stream: Watch Online @ Movie4u

Last Updated: 2014-05-27 11:05:11 (Update Now)

Torrent added: 2008-08-16 06:36:05



VPN For Torrents

Torrent Files List


2003.Hope.Springs.dvdrip.xvid.eng.mp3.avi (Size: 1.04 GB) (Files: 5)

 2003.Hope.Springs.dvdrip.xvid.eng.mp3.avi

1.04 GB

 cover.jpg

24.17 KB

 Read.Me.nfo

2.64 KB

 Torrent downloaded from Demonoid.com.txt

0.05 KB

 Trackers.txt

0.17 KB
 

Announce URL:

Torrent description

Hope Springs [2003]

IMDbPlot
Colin's a sad-eyed British artist (Firth) holed up in a rundown hotel in small-town Vermont after being dumped by his fiancee (Driver). The hotel owner (Steenburgen) plays matchmaker and introduces him to a local girl (Graham). Romance ensues, though Colin's ex may be looking to reunite.

IMDb Number: tt0314431
IMDb Link: http://www.imdb.com/title/tt0314431/


Genre
Romantic Comedy


Cast
Colin Firth ... Colin Ware
Heather Graham ... Mandy
Minnie Driver ... Vera Edwards
Mary Steenburgen... Joanie Fisher
Frank Collison ... Mr. Fisher
Oliver Platt ... Doug Reed
Mary Black ... Mrs. Peterson
Ken Kramer ... Harold Peterson
Chad Faust ... Rob
Tony Alcantar ... Webster
Bethoe Shirkoff ... Martha
Alan Giles ... Mr. West
Dolores Drake ... Waitress
Howard Storey ... Mr. Golfer
June B. Wilde ... Mrs. Golfer



Technical Stuff

Burn Tested: NO
Format : AVI
Format/Info : Audio Video Interleave
File size : 1.04 GiB
Duration : 1h 32mn
Overal bit rate : 1618 Kbps

Video
Format : MPEG-4 Visual
Format profile : [email protected]
Format settings, BVOP : No
Format settings, QPel : No
Format settings, GMC : 0 warppoint
Format settings, Matrix : Default
Codec ID : XVID
Codec ID/Hint : XviD
Duration : 1h 32mn
Bit rate : 1477 Kbps
Width : 640 pixels
Height : 360 pixels
Display aspect ratio : 16/9
Frame rate : 29.970 fps
Original frame rate : 29.969 fps
Resolution : 8 bits
Colorimetry : 4:2:0
Scan type : Progressive
Bits/(Pixel*Frame) : 0.214
Stream size : 974 MiB
Writing library : Magic0432

Audio
Format : MPEG Audio
Format version : Version 1 / Layer 3
Codec ID : 55
Codec ID/Hint : MP3
Duration : 1h 32mn
Bit rate mode : CBR
Bit rate : 128 Kbps
Channel(s) : 2 channels
Sampling rate : 44.1 KHz
Resolution : 16 bits
Stream size : 84.4 MiB

related torrents

Torrent name

health leech seeds Size
 


comments (0)

Main Menu