War

2003 Gods and Generals dvdrip xvid eng mp3

  • Download 5x Faster
  • Download torrent
  • Direct Download
  • Rate this torrent +  |  -
2003 Gods and Generals dvdrip xvid eng mp3

Anonymous and Direct Download 300GB+ free


Torrent info

Name:2003 Gods and Generals dvdrip xvid eng mp3

Total Size: 2.32 GB

Magnet: Magnet Link

Seeds: 0

Leechers: 0

Stream: Watch Online @ Movie4u

Last Updated: 2013-01-08 13:47:21 (Update Now)

Torrent added: 2008-08-16 06:36:05




Torrent Files List


2003.Gods.and.Generals.CD.01.of.02.dvdrip.xvid.eng.mp3.avi (Size: 2.32 GB) (Files: 6)

 2003.Gods.and.Generals.CD.01.of.02.dvdrip.xvid.eng.mp3.avi

1.25 GB

 2003.Gods.and.Generals.CD.02.of.02.dvdrip.xvid.eng.mp3.avi

1.07 GB

 Cover.jpg

50.20 KB

 Read.Me.nfo

5.51 KB

 Torrent downloaded from Demonoid.com.txt

0.05 KB

 Trackers.txt

0.17 KB
 

Announce URL:

Torrent description

Gods and Generals [2003] WITH FIXED AUDIO



Wikipedia (see link below)

Gods and Generals is a 2003 film based on the novel, Gods and Generals, by Jeffrey Shaara. It is considered a prequel to the 1993 film Gettysburg, which was based on The Killer Angels, a novel by Michael Shaara, Jeff Shaara's father.

The film stars Jeff Daniels as Lieutenant Colonel Joshua Chamberlain and Robert Duvall as Robert E. Lee.[1] While many of the actors from Gettysburg reprised their roles for this film, Stephen Lang is one of a few to play a different character: George Pickett in Gettysburg and Stonewall Jackson in Gods and Generals. Martin Sheen, the original Lee, had conflicts due to the shooting schedule of The West Wing, and was replaced by Duvall.

It was directed by Ronald F. Maxwell, who had also previously directed Gettysburg in 1993. After the box office underperformance of Gettysburg, Maxwell was unable to get the prequel greenlit until media mogul Ted Turner provided the entire $60 million budget.

Personal Note:
If you follow the link below you will notice this film was a critical and financial failure but it is still a very good film though not as good as Gettysburg...worth having though as a prequel to the much better Gettysburg.

Link
http://en.wikipedia.org/wiki/Gods_and_Generals_(film)

Cast

* Robert Duvall as Robert E. Lee (replacing Martin Sheen in Gettysburg)
* Jeff Daniels as Joshua Lawrence Chamberlain
* Stephen Lang as Stonewall Jackson
* Bruce Boxleitner as James Longstreet (replacing Tom Berenger)
* C. Thomas Howell as Thomas Chamberlain
* Kevin Conway as Sergeant Buster Kilrain, the only fictional major character
* Joseph Fuqua as J.E.B. Stuart
* Brian Mallon as Winfield Scott Hancock
* Alex Hyde-White as Ambrose E. Burnside
* William Sanderson as A.P. Hill (replacing Patrick Falci)
* Dennis Cook as Confederate Soldier
* James Garrett as Gen. John Caldwell
* J. Scott Watkins as Gen. Raleigh E. Colston


Technical Info

Burn Tested: No

MediaInfo 0.7.7.0

CD 01
Format : AVI
Format/Info : Audio Video Interleave
File size : 1.25 GiB
Duration : 1h 52mn
Overal bit rate : 1589 Kbps

Video
Format : MPEG-4 Visual
Format profile : [email protected]
Format settings, BVOP : No
Format settings, QPel : No
Format settings, GMC : 0 warppoint
Format settings, Matrix : Default
Codec ID : XVID
Codec ID/Hint : XviD
Duration : 1h 52mn
Bit rate : 1448 Kbps
Width : 640 pixels
Height : 360 pixels
Display aspect ratio : 16/9
Frame rate : 29.970 fps
Original frame rate : 29.969 fps
Resolution : 8 bits
Colorimetry : 4:2:0
Scan type : Progressive
Bits/(Pixel*Frame) : 0.210
Stream size : 1.14 GiB
Writing library : Magic0432

Audio
Format : MPEG Audio
Format version : Version 1 / Layer 3
Codec ID : 55
Codec ID/Hint : MP3
Duration : 1h 52mn
Bit rate mode : CBR
Bit rate : 128 Kbps
Channel(s) : 2 channels
Sampling rate : 44.1 KHz
Resolution : 16 bits
Stream size : 103 MiB
Writing library : LAME3.97


CD 02
Format : AVI
Format/Info : Audio Video Interleave
File size : 1.07 GiB
Duration : 1h 46mn
Overal bit rate : 1437 Kbps

Video
Format : MPEG-4 Visual
Format profile : [email protected]
Format settings, BVOP : No
Format settings, QPel : No
Format settings, GMC : 0 warppoint
Format settings, Matrix : Default
Codec ID : XVID
Codec ID/Hint : XviD
Duration : 1h 46mn
Bit rate : 1296 Kbps
Width : 640 pixels
Height : 360 pixels
Display aspect ratio : 16/9
Frame rate : 29.970 fps
Original frame rate : 29.969 fps
Resolution : 8 bits
Colorimetry : 4:2:0
Scan type : Progressive
Bits/(Pixel*Frame) : 0.188
Stream size : 985 MiB
Writing library : Magic0432

Audio
Format : MPEG Audio
Format version : Version 1 / Layer 3
Codec ID : 55
Codec ID/Hint : MP3
Duration : 1h 46mn
Bit rate mode : CBR
Bit rate : 128 Kbps
Channel(s) : 2 channels
Sampling rate : 44.1 KHz
Resolution : 16 bits
Stream size : 97.3 MiB
Writing library : LAME3.97

related torrents

Torrent name

health leech seeds Size
 


comments (0)

Main Menu