Techno

VA Skitz Rocks (Mixed By Nick Skitz) 2007 WRE

  • Download 5x Faster
  • Download torrent
  • Direct Download
  • Rate this torrent +  |  -
VA Skitz Rocks (Mixed By Nick Skitz) 2007 WRE

Anonymous and Free Direct Download 300GB+


Torrent info

Name:VA Skitz Rocks (Mixed By Nick Skitz) 2007 WRE

Total Size: 113.86 MB

Magnet: Magnet Link

Seeds: 0

Leechers: 0

Stream: Watch Online @ Movie4u

Last Updated: 2015-09-27 21:26:12 (Update Now)

Torrent added: 2009-08-30 19:05:43



VPN For Torrents

Torrent Files List


00-va-skitz_rocks_(mixed_by_nick_skitz)-2007.m3u (Size: 113.86 MB) (Files: 5)

 00-va-skitz_rocks_(mixed_by_nick_skitz)-2007.m3u

0.04 KB

 00-va-skitz_rocks_(mixed_by_nick_skitz)-2007.nfo

1.82 KB

 00-va-skitz_rocks_(mixed_by_nick_skitz)-2007.sfv

0.05 KB

 00-va-skitz_rocks_(mixed_by_nick_skitz)-front.jpg

1.48 MB

 01-va-skitz_rocks_(mixed_by_nick_skitz).mp3

112.38 MB
 

tracker

leech seeds
 

Torrent description

VA - Skitz Rocks (Mixed by Nick Skitz)


Rip Info
--------

Artist: VA
Album Title: Skitz Rocks (Mixed by Nick Skitz)
Record Label: Central Station Records
Rip Date: 2007-02-27
Store date : 2007-00-00
Catalog Number:
Genre: Dance
Year: 2007
Source: CD
Encoder: LAME 3.97 -V2 --vbr-new
Quality: 196 kbps avg / 44.1KHz / Joint Stereo


Track List
----------

01 skitz rockin megamix - skitz rockin megamix 6:03
02 boogie pimps - somebody to love 3:11
03 the warp brothers - smells like teen spirit 4:38
04 nick skitz - headbangerz rock da club 3:42
05 dj sputnik - all the things she said 4:00
06 groove coverage - poison 3:57
07 skam - the final countdown 3:19
08 club robbers - white stripers 4:22
09 scooter - ramp (the logical song) 3:58
10 nick skitz - guitar damage 3:43
11 starsplash - cold as ice 4:34
12 alex fakey - painted black 3:41
13 brooklyn bounce - sez, bass and rock n roll 5:02
14 black spider - save your life 2:26
15 the hose - rockmania 3:05
16 alex butcher - sweet dreams 2:13
17 index - glory of love 4:19
18 dj visage - rock that sound 4:22
19 clokx - clokx 5:02
20 nick skitz vs the choirboys - run to paradise 4:13
-----------------------------------------------------------------------
79:50
--------
01:19:50
117 megs

Rip Notes

Sorry The Cue File Isnt Seperate.
Here is the cue file for this torrent, copy and paste it into notepad and name it "01-va-skitz_rocks_(mixed_by_nick_skitz).cue"

PERFORMER "Various"

TITLE "Skitz Rocks (Mixed by Nick Skitz)"

FILE "01-va-skitz_rocks_(mixed_by_nick_skitz).mp3" MP3

TRACK 01 AUDIO

TITLE "skitz rockin megamix - skitz rockin megamix"

PERFORMER "Pink Floyd"

INDEX 01 00:00:00

TRACK 02 AUDIO

TITLE "boogie pimps - somebody to love"

PERFORMER "Pink Floyd"

INDEX 01 06:03:00

TRACK 03 AUDIO

TITLE "the warp brothers - smells like teen spirit"

PERFORMER "Pink Floyd"

INDEX 01 09:14:00

TRACK 04 AUDIO

TITLE "nick skitz - headbangerz rock da club"

PERFORMER "Pink Floyd"

INDEX 01 13:52:00

TRACK 05 AUDIO

TITLE "dj sputnik - all the things she said"

PERFORMER "Pink Floyd"

INDEX 01 17:34:00

TRACK 06 AUDIO

TITLE "groove coverage - poison"

PERFORMER "Pink Floyd"

INDEX 01 21:34:00

TRACK 07 AUDIO

TITLE "skam - the final countdown"

PERFORMER "Pink Floyd"

INDEX 01 25:31:00

TRACK 08 AUDIO

TITLE "club robbers - white stripers"

PERFORMER "Pink Floyd"

INDEX 01 28:50:00

TRACK 09 AUDIO

TITLE "scooter - ramp (the logical song)"

PERFORMER "Pink Floyd"

INDEX 01 33:12:00

TRACK 10 AUDIO

TITLE "nick skitz - guitar damage"

PERFORMER "Pink Floyd"

INDEX 01 37:10:00

TRACK 11 AUDIO

TITLE "starsplash - cold as ice"

PERFORMER "Pink Floyd"

INDEX 01 40:53:00

TRACK 12 AUDIO

TITLE "alex fakey - painted black"

PERFORMER "Pink Floyd"

INDEX 01 45:25:00

TRACK 13 AUDIO

TITLE "brooklyn bounce - sez, bass and rock n roll"

PERFORMER "Pink Floyd"

INDEX 01 49:08:00

TRACK 14 AUDIO

TITLE "black spider - save your life"

PERFORMER "Pink Floyd"

INDEX 01 54:10:00

TRACK 15 AUDIO

TITLE "the hose - rockmania"

PERFORMER "Pink Floyd"

INDEX 01 56:36:00

TRACK 16 AUDIO

TITLE "alex butcher - sweet dreams"

PERFORMER "Pink Floyd"

INDEX 01 59:41:00

TRACK 17 AUDIO

TITLE "index - glory of love"

PERFORMER "Pink Floyd"

INDEX 01 61:54:00

TRACK 18 AUDIO

TITLE "dj visage - rock that sound"

PERFORMER "Pink Floyd"

INDEX 01 66:13:00

TRACK 19 AUDIO

TITLE "clokx - clokx"

PERFORMER "Pink Floyd"

INDEX 01 70:35:00

TRACK 20 AUDIO

TITLE "nick skitz vs the choirboys - run to paradise"

PERFORMER "Pink Floyd"

INDEX 01 75:37:00

related torrents

Torrent name

health leech seeds Size
 


comments (0)

Main Menu