Techno

Underworld Second Toughest In The Infants

  • Download 5x Faster
  • Download torrent
  • Direct Download
  • Rate this torrent +  |  -
Underworld Second Toughest In The Infants

Free and Direct Download with Usenet.nl 300GB+ free


Torrent info

Name:Underworld Second Toughest In The Infants

Total Size: 553.99 MB

Magnet: Magnet Link

Seeds: 0

Leechers: 0

Stream: Watch Online @ Movie4u

Last Updated: 2010-09-08 18:30:53 (Update Now)

Torrent added: 2009-08-30 18:52:27





Torrent Files List


CD1 (Size: 493.61 MB) (Files: 15)

 CD1

  01 - Juanita + Kiteless + To Dream of Love.ape

99.35 MB

  02 - Banstyle + Sappys Curry.ape

82.95 MB

  03 - Confusion the Waitress.ape

37.93 MB

  04 - Rowla.ape

40.40 MB

  06 - Air Towel.ape

44.01 MB

  07 - Blueski.ape

11.91 MB

  08 - Stagger.ape

37.06 MB

  Second Toughest in the Infants.cue

1.56 KB

  Underworld - Second Toughest in the Infants.log

3.42 KB

 CD2(Bonus)

  01 - Born Slippy (nuxx).ape

75.46 MB

  02 - Rez.ape

64.52 MB

  Second Toughest in the Infants (bonus disc).cue

0.50 KB

  Second Toughest in the Infants (bonus disc).log

1.66 KB

 cover.jpg

11.42 KB

 Lyrics.txt

8.46 KB
 

Announce URL: http://tracker.openbittorrent.com/announce

Torrent description

Country: United Kingdom
Genre: Techno
Year: 1996
Format: APE (tracks)
Bitrate audio: lossless
Duration: 01:34:28
Tracklist:

CD1:
1. Juanita / Kiteless / To Dream Of Love
2. Banstyle / Sappys Curry
3. Confusion The Waitress
4. Rowla
5. Pearls Girl
6. Air Towel
7. Blueski
8. Stagger
Bonus CD:
1. Born Slippy (Nuxx)
2. Rez
Log copy the first disk
Exact Audio Copy V0.99 prebeta 1 from 25. May 2007
EAC Report on the extraction performed 26. August 2007, 2:33
Underworld / Second Toughest in the Infants
Drive: HL-DT-STDVDRAM GSA-4160B Adapter: 3 ID: 1
While reading: Accuracy
Using accurate stream: Yes
Disable audio cache: Yes
Using pointers C2: No
Correction of bias in reading: 667
The ability to read the area of Lead-in and Lead-out: No
Filling in missing samples silence: Yes
Deleting blocks of silence at the beginning and end: None
Interface: Built-Win32-Interface for Win NT/2000
Treatment gaps: Added to the previous track
The output format: Internal WAV-operation
Sample format: 44.100 Hz, 16 bit, Stereo
TOC extracted CD
Track | Start | Length | Initial sector | End sector
-------------------------------------------------- -------------------
1 | 0:00.32 | 16:36.50 | 32 | 74781
2 | 16:37.07 | 15:22.40 | 74782 | 143971
3 | 31:59.47 | 6:47.08 | 143972 | 174504
4 | 38:46.55 | 6:31.42 | 174505 | 203871
5 | 45:18.22 | 9:36.48 | 203872 | 247119
6 | 54:54.70 | 7:37.52 | 247120 | 281446
7 | 62:32.47 | 2:55.53 | 281447 | 294624
8 | 65:28.25 | 7:37.57 | 294625 | 328956
Track 1
Filename C: \ Program Files \ Exact Audio Copy \ Flac \ 01 - Juanita + Kiteless + To Dream of Love.wav
Length predzazora 0:00:02.32
Peak levels of 94.9%
Quality of track 99.9%
CRC copies 72E92636
Copying ... OK
Track 2
Filename C: \ Program Files \ Exact Audio Copy \ Flac \ 02 - Banstyle + Sappys Curry.wav
Length predzazora 0:00:00.45
Peak levels of 93.9%
The quality of the track 100.0%
CRC copies 177E09B9
Copying ... OK
Track 3
Filename C: \ Program Files \ Exact Audio Copy \ Flac \ 03 - Confusion the Waitress.wav
Length predzazora 0:00:00.62
Peak levels of 99.0%
Quality of track 99.9%
CRC copies 0376DED8
Copying ... OK
Track 4
Filename C: \ Program Files \ Exact Audio Copy \ Flac \ 04 - Rowla.wav
Length predzazora 0:00:01.48
Peak levels of 96.9%
The quality of the track 100.0%
CRC copies 759441A6
Copying ... OK
Track 5
Filename C: \ Program Files \ Exact Audio Copy \ Flac \ 05 - Pearls Girl.wav
Peak levels of 98.9%
The quality of the track 100.0%
CRC copies 6842290C
Copying ... OK
Track 6
Filename C: \ Program Files \ Exact Audio Copy \ Flac \ 06 - Air Towel.wav
Length predzazora 0:00:00.18
Peak levels of 80.1%
The quality of the track 100.0%
CRC copies 6658BBF8
Copying ... OK
Track 7
Filename C: \ Program Files \ Exact Audio Copy \ Flac \ 07 - Blueski.wav
Peak levels of 70.7%
The quality of the track 100.0%
CRC copies 0152A992
Copying ... OK
Track 8
Filename C: \ Program Files \ Exact Audio Copy \ Flac \ 08 - Stagger.wav
Length predzazora 0:00:00.18
Peak levels of 76.9%
The quality of the track 100.0%
CRC copies 39B6C02C
Copying ... OK
Errors did not occur
End of Report
Log copy bonus
Exact Audio Copy V0.99 prebeta 1 from 25. May 2007
EAC Report on the extraction performed 26. August 2007, 2:40
Underworld / Second Toughest in the Infants (bonus disc)
Drive: HL-DT-STDVDRAM GSA-4160B Adapter: 3 ID: 1
While reading: Accuracy
Using accurate stream: Yes
Disable audio cache: Yes
Using pointers C2: No
Correction of bias in reading: 667
The ability to read the area of Lead-in and Lead-out: No
Filling in missing samples silence: Yes
Deleting blocks of silence at the beginning and end: None
Interface: Built-Win32-Interface for Win NT/2000
Treatment gaps: Added to the previous track
The output format: Internal WAV-operation
Sample format: 44.100 Hz, 16 bit, Stereo
TOC extracted CD
Track | Start | Length | Initial sector | End sector
-------------------------------------------------- -------------------
1 | 0:00.00 | 11:40.25 | 0 | 52524
2 | 11:40.25 | 9:55.15 | 52525 | 97164
Track 1
Filename C: \ Program Files \ Exact Audio Copy \ Flac \ 01 - Born Slippy (nuxx). Wav
Length predzazora 0:00:02.00
Peak level 100.0%
Quality of track 99.9%
CRC copies BD056A14
Copying ... OK
Track 2
Filename C: \ Program Files \ Exact Audio Copy \ Flac \ 02 - Rez.wav
Length predzazora 0:00:02.48
Peak level 100.0%
The quality of the track 100.0%
CRC copies E0E43E07
Copying ... OK
Errors did not occur
End of Report
Extras. Information: Next to Dubnobass ... album, Second Toughest in the Infants, appeared two years after this epic album. During this period, Underworld released an excessively undervalued single (incredible mix of techno and breykbita "Born Slippy", the song that later brought him the title of international superstar since the publication of her on the soundtrack for Trainspotting ( "At the needle")), and played a sequence of entertaining and inspiring concert representations. In her spare time they spent at work in the studio. Second Toughest in the Infants - this magnificent collection of gnarled and insane unrest, filled with massive breykbitami style Godzilla and techno pulsations, which are dreamy acoustic insertion. This is an industrial waste and wonderland populated by fragments of living in superrazvityh sound creations. This sullen, difficult, complex, wild, reckless record. It has the sound of timeless classics. Thin masterpiece for careful listening.

Also in the folder based on the lyrics.

related torrents

Torrent name

health leech seeds Size
 

comments (0)

Main Menu