Techno

Underworld Dubnobasswithmyheadman

  • Download 5x Faster
  • Download torrent
  • Direct Download
  • Rate this torrent +  |  -
Underworld Dubnobasswithmyheadman

Anonymous and Free Direct Download 300GB+


Torrent info

Name:Underworld Dubnobasswithmyheadman

Total Size: 406.71 MB

Magnet: Magnet Link

Seeds: 0

Leechers: 0

Stream: Watch Online @ Movie4u

Last Updated: 2015-07-30 11:44:21 (Update Now)

Torrent added: 2009-08-30 18:52:21



VPN For Torrents

Torrent Files List


cover.jpg (Size: 406.71 MB) (Files: 4)

 cover.jpg

156.54 KB

 Underworld - dubnobasswithmyheadman.ape

406.55 MB

 Underworld - dubnobasswithmyheadman.cue

1.10 KB

 Underworld - dubnobasswithmyheadman.log

1.96 KB
 

tracker

leech seeds
 

Torrent description

Country: UK
Genre: Progressive House, Techno
Year: 1993
Format: APE (image +. Cue)
Bitrate audio: lossless
Duration: 72:50

Tracklist:
1. Dark & Long
2. Mmm Skyscraper I Love You
3. Surfboy
4. Spoonman
5. Tongue
6. Dirty Epic
7. Cowgirl
8. River Of Bass
9. M.E.

Extras. Information: The British electronic commands Underworld very unusual story. Initially, Karl Hyde and Rick Smith, have joined together to play rock guitar. The emergence of DJ Darena Emerson with the team radically changed their style. The first electronic album «Dubnobasswithmyheadman» brought the group approval of critics and advanced fans.
Log backup
Exact Audio Copy V0.99 prebeta 1 from 25. May 2007
EAC Report on the extraction performed 18. September, 2007, 22:47
Underworld / dubnobasswithmyheadman
Drive: HL-DT-STDVDRAM GSA-4160B Adapter: 3 ID: 1
While reading: Accuracy
Using accurate stream: Yes
Disable audio cache: Yes
Using pointers C2: No
Correction of bias in reading: 667
The ability to read the area of Lead-in and Lead-out: No
Filling in missing samples silence: Yes
Deleting blocks of silence at the beginning and end: None
Interface: Installed external ASPI-interface
Output format: Monkey's Audio Lossless Encoder v3.99 DLL
Format samples: Fast Lossless Compression
TOC extracted CD
Track | Start | Length | Initial sector | End sector
-------------------------------------------------- -------------------
1 | 0:00.32 | 7:35.60 | 32 | 34216
2 | 7:36.17 | 13:08.48 | 34217 | 93364
3 | 20:44.65 | 7:33.67 | 93365 | 127406
4 | 28:18.57 | 7:41.35 | 127407 | 162016
5 | 36:00.17 | 4:50.35 | 162017 | 183801
6 | 40:50.52 | 9:55.45 | 183802 | 228471
7 | 50:46.22 | 8:29.25 | 228472 | 266671
8 | 59:15.47 | 6:26.20 | 266672 | 295641
9 | 65:41.67 | 7:08.63 | 295642 | 327804
Specifications range retrieval and error messages
Selected Range
Filename F: \ E \ Downlded \ Distributive \ Torrent_razdacha \ Underworld - 1994 - Dubnobasswithmyheadman \ Underworld - dubnobasswithmyheadman.ape
Peak levels of 96.3%
The quality of the range of 100.0%
CRC copies 3BAF1B43
Copying ... OK
Errors did not occur
End of Report

related torrents

Torrent name

health leech seeds Size

dubnobasswithmyheadman

0 0 166.80 MB 0
 


comments (0)

Main Menu