Techno

Underworld A Hundred Days Off

  • Download 5x Faster
  • Download torrent
  • Direct Download
  • Rate this torrent +  |  -
Underworld A Hundred Days Off

Anonymous and Direct Download 300GB+ free


Torrent info

Name:Underworld A Hundred Days Off

Total Size: 372.10 MB

Magnet: Magnet Link

Seeds: 0

Leechers: 0

Stream: Watch Online @ Movie4u

Last Updated: 2015-07-08 04:59:46 (Update Now)

Torrent added: 2009-08-30 18:52:16




Torrent Files List


Underworld - A Hundred Days Off.cue (Size: 372.10 MB) (Files: 3)

 Underworld - A Hundred Days Off.cue

0.97 KB

 Underworld - A Hundred Days Off.flac

372.10 MB

 Underworld - A Hundred Days Off.log

2.00 KB
 

tracker

leech seeds
 

Torrent description

Country: UK
Genre: Electronic
Year: 2002
Format: FLAC (image +. Cue)
Bitrate audio: lossless
Length: 1:01:55
Tracklist:

1 Mo Move (6:53)
2 Two Months Off (9:07)
3 Twist (6:24)
4 Sola Sistim (6:26)
5 Little Speaker (8:36)
6 Trim (3:22)
7 Ess Gee (2:20)
8 Dinosaur Adventure 3D (7:55)
9 Ballet Lane (3:39)
10 Luetin (7:00)
EAC Report
Exact Audio Copy V0.99 prebeta 4 from 23. January 2008
EAC Report on the extraction performed 14. May 2008, 21:16
Unknown Artist / Unknown Title
Drive: LITE-ON DVDRW SHM-165P6S Adapter: 1 ID: 0
While reading: Accuracy
Using accurate stream: Yes
Disable audio cache: Yes
Using pointers C2: No
Correction of bias in reading: 6
The ability to read the area of Lead-in and Lead-out: No
Filling in missing samples silence: Yes
Deleting blocks of silence at the beginning and end: None
When calculating CRC zero samples were used: Yes
Interface: Built-Win32-Interface for Win NT/2000
The output format: Internal WAV-operation
Sample format: 44.100 Hz, 16 bit, Stereo
TOC extracted CD
Track | Start | Length | Initial sector | End sector
-------------------------------------------------- -------------------
1 | 0:00.00 | 6:54.25 | 0 | 31074
2 | 6:54.25 | 9:08.42 | 31075 | 72216
3 | 16:02.67 | 6:24.18 | 72217 | 101034
4 | 22:27.10 | 6:26.72 | 101035 | 130056
5 | 28:54.07 | 8:38.48 | 130057 | 168954
6 | 37:32.55 | 3:23.55 | 168955 | 184234
7 | 40:56.35 | 2:22.00 | 184235 | 194884
8 | 43:18.35 | 7:56.10 | 194885 | 230594
9 | 51:14.45 | 3:39.60 | 230595 | 247079
10 | 54:54.30 | 7:00.67 | 247080 | 278646
Specifications range retrieval and error messages
Selected Range
File Name E: \ Unknown Artist - Unknown Title.wav
Peak levels of 98.0%
The quality of the range of 100.0%
CRC copies 2AF4EE19
Copying ... OK
Errors did not occur
End of Report

related torrents

Torrent name

health leech seeds Size
 


comments (0)

Main Menu