Techno

Underworld 1992 2002

  • Download 5x Faster
  • Download torrent
  • Direct Download
  • Rate this torrent +  |  -
Underworld 1992 2002

Free and Direct Download with Usenet.nl 300GB+ free


Torrent info

Name:Underworld 1992 2002

Total Size: 1.03 GB

Magnet: Magnet Link

Seeds: 0

Leechers: 0

Stream: Watch Online @ Movie4u

Last Updated: 2016-07-07 03:54:28 (Update Now)

Torrent added: 2009-08-30 18:52:15





Torrent Files List


1992-2002 (Disc 1).log (Size: 1.03 GB) (Files: 10)

 1992-2002 (Disc 1).log

2.88 KB

 1992-2002 (Disc 2).log

3.22 KB

 Cover.jpg

70.97 KB

 folder.jpg

31.20 KB

 List.txt

0.29 KB

 Underworld - 1992-2002 (Disc 1).cue

1.13 KB

 Underworld - 1992-2002 (Disc 1).flac

538.52 MB

 Underworld - 1992-2002 (Disc 2).cue

1.40 KB

 Underworld - 1992-2002 (Disc 2).flac

515.22 MB

 Underworld.jpg

2.69 MB
 

tracker

leech seeds
 

Torrent description

Genre: Techno
Year: 1992-2002
Format: FLAC (image +. Cue)
Bitrate audio: lossless
Length: 2:33:50
Tracklist:

Disc 1
01. Bigmouth
02. Dirty
03. Mmm Skyscraper I Love You
04. Rez
05. Spikee
06. Dirty Epic
07. Dark And Long Dark Train
Disc 2
01. Cowgirl
02. Born Slippy Nuxx
03. Pearls Girl
04. Jumbo
05. Push Upstairs
06. Moaner
07. Shudder / King Of Snake
08. 8 Ball
09. Two Months Off
EAC Report
Exact Audio Copy V0.99 prebeta 4 from 23. January 2008
EAC Report on the extraction performed 25. April, 2008, 18:28
Underworld / 1992-2002 (Disc 1)
Drive: ASUS DRW-1814BLT Adapter: 3 ID: 0
While reading: Accuracy
Using accurate stream: Yes
Disable audio cache: Yes
Using pointers C2: No
Correction of bias in reading: 6
The ability to read the area of Lead-in and Lead-out: No
Filling in missing samples silence: Yes
Deleting blocks of silence at the beginning and end: None
When calculating CRC zero samples were used: None
Interface: Built-Win32-Interface for Win NT/2000
The output format: User encoder
Selected bitrate: 768 kBit / s
Quality: High
Adding ID3-tag: None
The utility of compression: D: \ Program Files \ Exact Audio Copy \ FLAC \ FLAC.EXE
More options: -6-V-T "ARTIST =% a"-T "TITLE =% t"-T "ALBUM =% g"-T "DATE =% y"-T "TRACKNUMBER =% n"-T " GENRE =% m "-T" COMMENT =% e "% s-o% d
TOC extracted CD
Track | Start | Length | Initial sector | End sector
-------------------------------------------------- -------------------
1 | 0:00.00 | 10:08.09 | 0 | 45608
2 | 10:08.09 | 10:18.43 | 45609 | 92001
3 | 20:26.52 | 13:14.16 | 92002 | 151567
4 | 33:40.68 | 9:57.28 | 151568 | 196370
5 | 43:38.21 | 12:29.55 | 196371 | 252600
6 | 56:08.01 | 9:59.19 | 252601 | 297544
7 | 66:07.20 | 10:53.39 | 297545 | 346558
Specifications range retrieval and error messages
Selected Range
Filename H: \ musicH \ Underworld - 1992-2002 \ Underworld - 1992-2002 (Disc 1). Wav
Peak level 100.0%
The quality of the range of 99.9%
CRC copies 3FDBB39B
Copying ... OK
Errors did not occur
AccurateRip: summary
Track 1 is not defined accuracy (the accuracy of 22) [81F6E68C], AccurateRip returned [72DCD5B4]
Track 2 is not determined by the accuracy (reliability of 23) [63B3560A], AccurateRip returned [DE7E60F5]
Track 3 is not defined accuracy (the accuracy of 22) [222ADBE2], AccurateRip returned [166BFFB3]
Track 4 is not defined accuracy (the accuracy of 22) [D88C3EA2], AccurateRip returned [B7FD94CA]
Track 5 is not determined by the accuracy (reliability of 21) [17CF870B], AccurateRip returned [AFDC6A2B]
Track 6 is not determined by the accuracy (reliability of 23) [EBAD068C], AccurateRip returned [F9D3DB64]
Track 7 is not defined accuracy (reliability of 20) [522D14C9], AccurateRip returned [8C4ECA21]
Not one track is not tested for accuracy
Your database may be a variant of stamping disc
End of Report
EAC Report
Exact Audio Copy V0.99 prebeta 4 from 23. January 2008
EAC Report on the extraction performed 25. April, 2008, 18:10
Underworld / 1992-2002 (Disc 2)
Drive: ASUS DRW-1814BLT Adapter: 3 ID: 0
While reading: Accuracy
Using accurate stream: Yes
Disable audio cache: Yes
Using pointers C2: No
Correction of bias in reading: 6
The ability to read the area of Lead-in and Lead-out: No
Filling in missing samples silence: Yes
Deleting blocks of silence at the beginning and end: None
When calculating CRC zero samples were used: None
Interface: Built-Win32-Interface for Win NT/2000
The output format: User encoder
Selected bitrate: 768 kBit / s
Quality: High
Adding ID3-tag: None
The utility of compression: D: \ Program Files \ Exact Audio Copy \ FLAC \ FLAC.EXE
More options: -6-V-T "ARTIST =% a"-T "TITLE =% t"-T "ALBUM =% g"-T "DATE =% y"-T "TRACKNUMBER =% n"-T " GENRE =% m "-T" COMMENT =% e "% s-o% d
TOC extracted CD
Track | Start | Length | Initial sector | End sector
-------------------------------------------------- -------------------
1 | 0:00.00 | 8:30.52 | 0 | 38301
2 | 8:30.52 | 7:34.02 | 38302 | 72353
3 | 16:04.54 | 9:37.21 | 72354 | 115649
4 | 25:42.00 | 6:59.41 | 115650 | 147115
5 | 32:41.41 | 6:09.44 | 147116 | 174834
6 | 38:51.10 | 10:22.65 | 174835 | 221549
7 | 49:14.00 | 9:30.37 | 221550 | 264336
8 | 58:44.37 | 8:54.49 | 264337 | 304435
9 | 67:39.11 | 9:10.07 | 304436 | 345692
Specifications range retrieval and error messages
Selected Range
Filename H: \ musicH \ Underworld - 1992-2002 \ Underworld - 1992-2002 (Disc 2). Wav
Peak level 100.0%
The quality of the range of 100.0%
CRC copies 522AFE66
Copying ... OK
Errors did not occur
AccurateRip: summary
Track 1 is not defined accuracy (the accuracy of 22) [6BE31AE1], AccurateRip returned [03560FD2]
Track 2 is not determined by the accuracy (reliability of 21) [AE4E3EE8], AccurateRip returned [251DCED4]
Track 3 is not defined accuracy (the accuracy of 21) [B206F1D5], AccurateRip returned [E0746078]
Track 4 is not defined accuracy (the accuracy of 23) [CCB2387D], AccurateRip returned [2BF53305]
Track 5 is not determined by the accuracy (reliability of 22) [C6D9122D], AccurateRip returned [F6F4CE07]
Track 6 is not determined by the accuracy (reliability of 21) [F0AB2B25], AccurateRip returned [59AAF747]
Track 7 is not defined accuracy (reliability of 23) [BC1A0185], AccurateRip returned [841645FD]
Track 8 is not defined accuracy (the accuracy of 23) [F2B75FA5], AccurateRip returned [891529A2]
Track 9, the accuracy is not defined (the reliability of 24) [ADC4D1F6], AccurateRip returned [1C9CCA71]
Not one track is not tested for accuracy
Your database may be a variant of stamping disc
End of Report

related torrents

Torrent name

health leech seeds Size
 

comments (0)

Main Menu