Other

Calamity Jane (1953) DVDRip AC3 ENG

  • Download 5x Faster
  • Download torrent
  • Direct Download
  • Rate this torrent +  |  -
Calamity Jane (1953) DVDRip AC3 ENG

Anonymous and Free Direct Download


Torrent info

Name:Calamity Jane (1953) DVDRip AC3 ENG

Total Size: 700.03 MB

Magnet: Magnet Link

Seeds: 29

Leechers: 5

Stream: Watch Online @ Movie4u

Last Updated: 0000-00-00 00:00:00 (Update Now)

Torrent added: 2008-08-16 03:35:41



VPN For Torrents

Torrent Files List


Calamity Jane (1953) - DVDRip - AC3 - ENG.avi (Size: 700.03 MB) (Files: 3)

 Calamity Jane (1953) - DVDRip - AC3 - ENG.avi

700.02 MB

 Calamity Jane (1953) - DVDRip - AC3 - ENG.nfo

9.88 KB

 Tracked_by_Demonoid_com.txt

0.03 KB
 

Announce URL: http://inferno.demonoid.com:3392/announce

Torrent description

http://uk.imdb.com/title/tt0045591
User Rating: 6.9/10 (1,991 votes)
Release Date: 4 November 1953 (USA)
Genre: Biography | Comedy | Musical | Romance | Western

Plot:
The story of Calamity Jane, her saloon, and her romance with Wild Bill Hickok.

Screenshots:

Calamity Jane (1953)   DVDRip   AC3   ENG preview 0
Calamity Jane (1953)   DVDRip   AC3   ENG preview 1
Calamity Jane (1953)   DVDRip   AC3   ENG preview 2

General
Complete name : Calamity Jane (1953) - DVDRip - AC3 - ENG.avi
Format : AVI
Format/Info : Audio Video Interleave
File size : 700 MiB
Duration : 1h 37mn
Overal bit rate : 1008 Kbps
Writing application : VirtualDubMod 1.5.4.1 (build 2178/release)
Writing library : VirtualDubMod build 2178/release
IAS1 : English

Video
Format : MPEG-4 Visual
Format profile : Streaming [email protected]
Format settings, BVOP : Yes
Format settings, QPel : No
Format settings, GMC : No warppoints
Format settings, Matrix : Custom
Codec ID : XVID
Codec ID/Hint : XviD
Duration : 1h 37mn
Bit rate : 809 Kbps
Width : 512 pixels
Height : 384 pixels
Display aspect ratio : 4/3
Frame rate : 25.000 fps
Resolution : 8 bits
Colorimetry : 4:2:0
Scan type : Progressive
Bits/(Pixel*Frame) : 0.165
Stream size : 562 MiB (80%)
Writing library : XviD 1.2.0.dev47 (UTC 2006-11-01)

Audio
Format : AC-3
Format/Info : Audio Coding 3
Codec ID : 2000
Duration : 1h 37mn
Bit rate mode : Constant
Bit rate : 192 Kbps
Channel(s) : 1 channel
Channel positions : C
Sampling rate : 48.0 KHz
Stream size : 133 MiB (19%)

Trackers:
http://inferno.demonoid.com:3392/announce
http://www.torrent-downloads.to:5869/announce
http://open.tracker.thepiratebay.org:80/announce
http://tpb.tracker.thepiratebay.org:80/announce
http://vip.tracker.thepiratebay.org/announce


Info Hash: 01DF5256E2CA0EC8AF9F271BF8A67BCA5EFC41AF

related torrents

Torrent name

health leech seeds Size

Calamity Jane (1953)

0 0 699.00 MB 0
 


comments (0)

Main Menu