Asian

Lady Vengeance 2005 BluRayRip 720p 5 1 ch h264 AAC kor subs eng+ 1h55m mp4 +Sample [RipMinion]

  • Download 5x Faster
  • Download torrent
  • Direct Download
  • Rate this torrent +  |  -

Torrent info

Name:Lady Vengeance 2005 BluRayRip 720p 5 1 ch h264 AAC kor subs eng+ 1h55m mp4 +Sample [RipMinion]

Total Size: 1.41 GB

Magnet: Magnet Link

Seeds: 0

Leechers: 0

Stream: Watch Online @ Movie4u

Last Updated: 2015-10-20 05:01:05 (Update Now)

Torrent added: 2009-08-30 18:17:02





Torrent Files List


Lady Vengeance 2005 ( cover ).JPG (Size: 1.41 GB) (Files: 19)

 Lady Vengeance 2005 ( cover ).JPG

2.48 MB

 Lady Vengeance 2005 ( disc ).JPG

646.93 KB

 Lady Vengeance 2005 ( imdb.org tt0451094 ).URL

0.06 KB

 Lady Vengeance 2005 - SAMPLE.mp4

36.18 MB

 Lady Vengeance 2005 BluRayRip 720p 5.1 h264 AAC lang=kor subs 1h55m.mp4

1.37 GB

 Lady Vengeance 2005 BluRayRip 720p 5.1 h264 AAC lang=kor subs 1h55m.nfo

5.29 KB

 Lady Vengeance 2005 BluRayRip 720p 5.1 h264 AAC lang=kor subs 1h55m.srt

46.37 KB

 Lady Vengeance 2005 BluRayRip 720p 5.1 h264 AAC lang=kor subs 1h55m.txt

5.29 KB

 Subtitles

  Lady Vengeance 2005 BluRayRip 720p 5.1 h264 AAC spoken=kor subs=cze 1h55m.srt

47.19 KB

  Lady Vengeance 2005 BluRayRip 720p 5.1 h264 AAC spoken=kor subs=eng 1h55m.srt

46.37 KB

  Lady Vengeance 2005 BluRayRip 720p 5.1 h264 AAC spoken=kor subs=rum 1h55m.srt

51.42 KB

  Lady Vengeance 2005 BluRayRip 720p 5.1 h264 AAC spoken=kor subs=spa 1h55m.srt

48.49 KB

 trackers

  tracked_by_1337x_org.txt

0.02 KB

  tracked_by_Demonoid.com.txt

0.05 KB

  tracked_by_h33t_com.txt

0.02 KB

  tracked_by_hexagon.cc.txt

0.02 KB

 ~ Rare Improved-Cut Movies ( fanedit.org ).URL

0.07 KB

 ~ RipMinion ~ Rare Torrents ( h33t.com 148823 ).URL

0.07 KB

 ~ RipMinion ~ Rare Torrents (1337x.org user_51839 ).URL

0.08 KB
 

Announce URL:

Torrent description

.
Lady Vengeance 2005 BluRayRip 720p 5.1 h264 AAC lang=kor subs 1h55m .mp4
( Chinjeolhan geumjassi )

I sought a high-quality yet reasonably-sized 720p AVCHD Compliant (BluRay/PS3/XBOX-ready) h264 torrent of the Korean movie 'Lady Vengeance', but no luck. So, I created one, for the media center and to share. (fyi, some cover art was scrounged from cdcovers.cc so it's not necessarily entirely indicative).


Details, Ratings, Reviews : http://www.imdb.com/title/tt0451094/
Language : Korean
Subtitles : English, Romanian, Spanish, Czech
Picture of Cover : Lady Vengeance 2005 BluRayRip 720p 5 1 ch h264 AAC kor subs eng+ 1h55m mp4 +Sample [RipMinion] preview 0 *
Picture of Disc : Lady Vengeance 2005 BluRayRip 720p 5 1 ch h264 AAC kor subs eng+ 1h55m mp4 +Sample [RipMinion] preview 1 *
Azureus/Vuze Magnet link : magnet:?xt=urn:btih:HI3Z3V5UOTP7JI7QLQUMIRZSOHT3XVZC
DVD5 (4.4GB) version .torrent : http://www.mininova.org/tor/2602966
Rip Quality (video & audio) : virtually indistinguishable from the original source
More rare Improved-Cut movies : http://fanedit.org/ then http://fanedit.info/
~ RipMinion ~ Rare Torrents : http://h33t.com/userdetails.php?id=148823
~ RipMinion ~ Rare Torrents : http://1337x.org/user_51839
* Some cover art was scrounged from cdcovers.cc so it's not necessarily entirely indicative.


Encode 'inspired by secretmyth & newartriot' for an Optimal blend of Compression, Quality, and AVCHD compliancy (BluRay/PS3/XBOX-ready).

General
Complete name : Lady Vengeance 2005 BluRayRip 720p 5.1 h264 AAC lang=kor subs 1h55m .mp4
Format : MPEG-4
Format profile : Base Media
Codec ID : isom
File size : 1.37 GiB
Duration : 1h 55mn
Overall bit rate : 1 705 Kbps

Video
AVCHD Compliant : BluRay/PS3/XBOX ready; no re-encode!
Format : AVC (h264)
Format/Info : Advanced Video Codec
Format profile : [email protected]
Format settings, CABAC : Yes
Format settings, ReFrames : 3 frames
Codec ID : avc1
Codec ID/Info : Advanced Video Coding
Bit rate mode : Variable
Bit rate : 1 536 Kbps (2-pass)
Maximum bit rate : 14.6 Mbps
Width : 1 280 pixels
Height : 720 pixels (720p)
Display aspect ratio : 16/9
Frame rate mode : Constant
Frame rate : 23.976 fps
Standard : NTSC
Resolution : 24 bits
Colorimetry : 4:2:0
Scan type : Progressive
Bits/(Pixel*Frame) : 0.070
Stream size : 1.23 GiB (90%)
Writing library : x264 core 67 r1173M f6d3166
Encoding settings : cabac=1 / ref=3 / deblock=1:-1:0 / analyse=0x3:0x133 / me=umh / subme=9 / psy_rd=1.0:0.2 / mixed_ref=1 / me_range=64 / chroma_me=1 / trellis=2 / 8x8dct=1 / cqm=0 / deadzone=21,11 / chroma_qp_offset=-3 / threads=3 / nr=0 / decimate=1 / mbaff=0 / bframes=3 / b_pyramid=1 / b_adapt=2 / b_bias=0 / direct=3 / wpredb=1 / keyint=250 / keyint_min=25 / scenecut=40 / rc=2pass / bitrate=1536 / ratetol=1.0 / qcomp=0.60 / qpmin=10 / qpmax=51 / qpstep=4 / cplxblur=20.0 / qblur=0.5 / vbv_maxrate=13000 / vbv_bufsize=13000 / ip_ratio=1.40 / pb_ratio=1.30 / aq=1:1.00

Audio
Format : AAC, Nero AAC Encoder v1.3.3.0
Format/Info : Advanced Audio Codec
Format version : Version 4
Format profile : LC (AAC-HE v1 extension)
Format settings, SBR : Yes
Format settings, PS : No
Codec ID : 40
Bit rate mode : Variable
Bit rate : 167 Kbps (-he -q 0.25 ~transparent)
Maximum bit rate : 215 Kbps
Channel(s) : 6 channels (5.1 Surround Sound)
Channel positions : Front: L C R, Rear: L R, LFE
Sampling rate : 48.0 KHz
Resolution : 16 bits
Stream size : 138 MiB (10%)
Language : Korean
Subtitles : English, Romanian, Spanish, Czech

Rip Quality (video & audio) : virtually indistinguishable from the original source.
Encode process details / FAQ : http://ripminion.pastebay.com/27702
~ RipMinion ~ Rare Torrents : http://h33t.com/userdetails.php?id=148823
~ RipMinion ~ Rare Torrents : http://1337x.org/user_51839
Please feel free to post constructive feedback, questions, comments, etc.


Playback issues? Here's the easy fix: http://www.videolan.org/vlc/

For fast & easy Convert-to-AVCHD, Burn, and Play on BluRay/PS3/XBOX from a variety of disc types (DVD-R, DVD+R_DL, BD-R, etc.), I recommend multiAVCHD {link follows}. It can auto-generate a slick customizable 'iTunes-style' slide menu for multiple movies and burn all to a single disc! Or, if desired, it can span across several discs. 100% AVCHD Compliant Video, such as this, is quickly made ready (anything else is automatically re-encoded, reducing quality, wasting time, and increasing storage requirements):
http://www.videohelp.com/tools/multiAVCHD
http://www.videohelp.com/tools/eac3to
http://www.videohelp.com/tools/ffmpeg
http://sourceforge.net/projects/avisynth2/files/
http://ImgBurn.com/

Or, for fast & easy Convert-to-DVD, Burn, and Play on any DVD Player from DVD-R or DVD+R_DL media, I recommend 'ConvertXtoDVD', either buy or search for the Torrent.


I really appreciate you helping seed at any capacity you can spare.

Enjoy the show,
~ RipMinion ~

.

related torrents

Torrent name

health leech seeds Size
 

comments (0)

Main Menu