Asian

La Prima Missione Heart of Dragon (Jackie Chan) [DVDrip XviD Italian Ac3 Chinese Mp3][Tntvil

  • Download 5x Faster
  • Download torrent
  • Direct Download
  • Rate this torrent +  |  -

Torrent info

Name:La Prima Missione Heart of Dragon (Jackie Chan) [DVDrip XviD Italian Ac3 Chinese Mp3][Tntvil

Total Size: 1.46 GB

Magnet: Magnet Link

Seeds: 3

Leechers: 5

Stream: Watch Online @ Movie4u

Last Updated: 0000-00-00 00:00:00 (Update Now)

Torrent added: 2009-08-30 18:16:38




Torrent Files List


Jackie Chan - La Prima Missione - Heart Of Dragon (DVDrip - ITA Ac3 - CHI Mp3)(1985).avi (Size: 1.46 GB) (Files: 1)

 Jackie Chan - La Prima Missione - Heart Of Dragon (DVDrip - ITA Ac3 - CHI Mp3)(1985).avi

1.46 GB
 

Announce URL: http://tracker.tntvillage.scambioetico.org:2710/announce

Torrent description

La Prima Missione - Heart of Dragon [DVDrip - XviD - Italian Ac3 - Chinese Mp3][Tntvillage.Scambioetico]


PRIMA MISSIONE

HEART OF DRAGON (1985)




Video: DVDRip (16:9) coded in XviD.
Audio: in double language Italiano (AC3) e Chinese Cantonese (MP3).



-Cover

Visit this link: La Prima Missione   Heart of Dragon (Jackie Chan) [DVDrip   XviD   Italian Ac3   Chinese Mp3][Tntvil preview 0



-Screenshot

Visit this link: La Prima Missione   Heart of Dragon (Jackie Chan) [DVDrip   XviD   Italian Ac3   Chinese Mp3][Tntvil preview 1 Visit this link: La Prima Missione   Heart of Dragon (Jackie Chan) [DVDrip   XviD   Italian Ac3   Chinese Mp3][Tntvil preview 2



-Info

Heart of Dragon (1985)
Cast: Anthony Chan, Dennis Chan, Jackie Chan, Sammo Hung
Director: Sammo Hung Kam-Bo, Fruit Chan


-Trama

Un poliziotto abbandona il sogno di viaggiare attorno al mondo per prendersi cura del fratello ritardato
Suo malgrado e' coinvolto in una lotta tra bande,il fratello viene rapito per costringere il poliziotto a consegnare ai malviventi un informatore



-Data Info

RICAVATI CON MEDIAINFO:
General
Complete name : D:\Jackie Chan - La Prima Missione - Heart Of Dragon (DVDrip - ITA Ac3 - CHI Mp3)(1985).avi
Format : AVI
Format/Info : Audio Video Interleave
File size : 1.46 GiB
Duration : 1h 27mn
Overall bit rate : 2 386 Kbps

Video
Format : MPEG-4 Visual
Format profile : Streaming [email protected]
Format settings, BVOP : Yes
Format settings, QPel : No
Format settings, GMC : No warppoints
Format settings, Matrix : Custom
Codec ID : XVID
Codec ID/Hint : XviD
Duration : 1h 27mn
Bit rate : 2 072 Kbps
Width : 656 pixels
Height : 368 pixels
Display aspect ratio : 16/9
Frame rate : 25.000 fps
Resolution : 24 bits
Colorimetry : 4:2:0
Scan type : Progressive
Bits/(Pixel*Frame) : 0.343
Stream size : 1.26 GiB (87%)
Writing library : XviD 1.2.0.dev47 (UTC 2006-11-01)

Audio #1
Format : AC-3
Format/Info : Audio Coding 3
Codec ID : 2000
Duration : 1h 27mn
Bit rate mode : Constant
Bit rate : 192 Kbps
Channel(s) : 2 channels
Channel positions : L R
Sampling rate : 48.0 KHz
Stream size : 120 MiB (8%)
Alignment : Aligned on interleaves
Interleave, duration : 64 ms (1.60 video frames)
Interleave, preload duration : 192 ms
Title : pm T80 2_0ch 192Kbps DELAY 0ms

Audio #2
Format : MPEG Audio
Format version : Version 1
Format profile : Layer 3
Codec ID : 55
Codec ID/Hint : MP3
Duration : 1h 27mn
Bit rate mode : Variable
Bit rate : 107 Kbps
Minimum bit rate : 128 Kbps
Channel(s) : 2 channels
Sampling rate : 48.0 KHz
Resolution : 16 bits
Stream size : 66.6 MiB (4%)
Alignment : Aligned on interleaves
Interleave, duration : 24 ms (0.60 video frame)
Interleave, preload duration : 79 ms
Title : audio_cantonese
Writing library : LAME3.97
Encoding settings : ABR




Visit http://www.tntvillage.scambioetico.org/

related torrents

Torrent name

health leech seeds Size
 

comments (0)

Main Menu