Asian

DETECTIVE (MALAYALAM) [2007] ^^LTM^^

  • Download 5x Faster
  • Download torrent
  • Direct Download
  • Rate this torrent +  |  -
DETECTIVE (MALAYALAM) [2007] ^^LTM^^

Anonymous and Direct Download 300GB+ free


Torrent info

Name:DETECTIVE (MALAYALAM) [2007] ^^LTM^^

Total Size: 886.59 MB

Magnet: Magnet Link

Seeds: 0

Leechers: 0

Stream: Watch Online @ Movie4u

Last Updated: 0000-00-00 00:00:00 (Update Now)

Torrent added: 2009-08-30 17:20:11




Torrent Files List


!IMPORTANT!.txt (Size: 886.59 MB) (Files: 3)

 !IMPORTANT!.txt

0.20 KB

 DETECTIVE [2007] ^^LTM^^.avi

886.59 MB

 DETECTIVE [2007] ^^LTM^^.nfo

3.96 KB
 

Announce URL:

Torrent description

DETECTIVE [2007]


Director : Jithu Joseph

Writer : Jithu Joseph

Cast : Suresh Gopi,Jagathi Sreekumar,Sindhu Menon....

Presentation : Central

Uploader : ^^LTM^^

IMDB LINK : http://www.imdb.com/title/tt0972800/

IMDB RATE : 8.6
---------------------------------------------------------------------
GENERAL INFO

Format : AVI
Format/Info : Audio Video Interleave
File size : 887 MiB
Duration : 2h 15mn
Overall bit rate : 917 Kbps
Writing library : TMPGEnc 4.0 XPress Version. 4.5.2.255

Video
Format : MPEG-4 Visual
Format settings, BVOP : Yes
Format settings, QPel : No
Format settings, GMC : No warppoints
Format settings, Matrix : Default
Muxing mode : Packed bitstream
Codec ID : DX50
Codec ID/Hint : DivX 5
Duration : 2h 15mn
Bit rate : 776 Kbps
Width : 444 pixels
Height : 204 pixels
Display aspect ratio : 2.2
Frame rate : 25.000 fps
Resolution : 24 bits
Colorimetry : 4:2:0
Scan type : Progressive
Bits/(Pixel*Frame) : 0.343
Stream size : 750 MiB (85%)
Writing library : DivX 2676

Audio
Format : MPEG Audio
Format version : Version 1
Format profile : Layer 3
Codec ID : 55
Codec ID/Hint : MP3
Duration : 2h 15mn
Bit rate mode : Constant
Bit rate : 128 Kbps
Channel(s) : 2 channels
Sampling rate : 48.0 KHz
Resolution : 16 bits
Stream size : 124 MiB (14%)
Alignment : Aligned on interleaves
Interleave, duration : 40 ms (1.00 video frame)
Interleave, preload duration : 384 ms

related torrents

Torrent name

health leech seeds Size
 


comments (0)

Main Menu