Asian

Big bang SubFrench DVDRip XviD[

  • Download 5x Faster
  • Download torrent
  • Direct Download
  • Rate this torrent +  |  -
Big bang SubFrench DVDRip XviD[

Free and Direct Download with Usenet.nl 300GB+ free


Torrent info

Name:Big bang SubFrench DVDRip XviD[

Total Size: 992.88 MB

Magnet: Magnet Link

Seeds: 0

Leechers: 0

Stream: Watch Online @ Movie4u

Last Updated: 2010-09-27 16:33:03 (Update Now)

Torrent added: 2009-08-30 16:57:04





Torrent Files List


Big bang.avi (Size: 992.88 MB) (Files: 1)

 Big bang.avi

992.88 MB
 

Announce URL: http://www.maroctorrent.net/annonce.php

Torrent description

Origine du film : Corée
Réalisateur : Park Jeong-woo
Acteurs : Kam Woo Sung, Kim Su Ro, Jang Hang-seon
Genre : Action, Comédie, drame
Durée : 116 mins
Date de sortie : 2007



Park Man Su est un salarié qui a passé sa vie entière à respecter parfaitement les règles, comme son père le lui avait demandé. Quand il perd son travail et son mariage en même temps, il abandonne les règles et se fait arrêter pour avoir uriné dans la rue. Au commissariat, il rencontre Cheul Gun qui est un malfaiteur récidiviste. Déjà au bord du gouffre, Man Su fuit du commissariat avec son copain de cellule et un flingue volé au commissariat. Les choses deviennent vite incontrôlables pour nos deux fugitifs en cavale.





Qualité : DVDRiP
Format : XviD
Langue : Autre ...
Sous-titre : Français
Découper avec : Aucun
Nombre de fichiers : 1 Fichiers
Taille des fichiers : 992 Mo
Taille totale : 992 Mo

Format : AVI
Format/Info : Audio Video Interleave
File size : 993 MiB
Duration : 1h 56mn
Overall bit rate : 1191 Kbps
Writing application : VirtualDubMod 1.5.10.2 Fr | www.trad-fr.com || (build 2540/release)
Writing library : VirtualDubMod build 2540/release

Video
Format : MPEG-4 Visual
Format settings, BVOP : Yes
Format settings, QPel : No
Format settings, GMC : No warppoints
Format settings, Matrix : Default
Muxing mode : Packet Bitstream
Codec ID : DX50
Codec ID/Hint : DivX 5
Duration : 1h 56mn
Bit rate : 1054 Kbps
Width : 624 pixels
Height : 272 pixels
Display aspect ratio : 2.25
Frame rate : 23.976 fps
Resolution : 8 bits
Colorimetry : 4:2:0
Scan type : Progressive
Bits/(Pixel*Frame) : 0.259
Stream size : 878 MiB (88%)
Writing library : DivX 6.6.1.4

Audio
Format : MPEG Audio
Format version : Version 1
Format profile : Layer 3
Codec ID : 55
Codec ID/Hint : MP3
Duration : 1h 56mn
Bit rate mode : Constant
Bit rate : 128 Kbps
Channel(s) : 2 channels
Sampling rate : 48.0 KHz
Resolution : 16 bits
Stream size : 107 MiB (11%)
Alignment : Split accross interleaves
Interleave, duration : 42 ms (1.00 video frame)
Interleave, preload duration : 500 ms

related torrents

Torrent name

health leech seeds Size
 

comments (0)

Main Menu