Animation

Winnie The Pooh Huffalump Movie Shadow H33t DivX Avi mazysnuthouse org

  • Download 5x Faster
  • Download torrent
  • Direct Download
  • Rate this torrent +  |  -

Torrent info

Name:Winnie The Pooh Huffalump Movie Shadow H33t DivX Avi mazysnuthouse org

Total Size: 687.54 MB

Magnet: Magnet Link

Seeds: 0

Leechers: 0

Stream: Watch Online @ Movie4u

Last Updated: 2010-08-06 21:01:29 (Update Now)

Torrent added: 2009-08-30 15:54:19



VPN For Torrents

Torrent Files List


Winnie The Pooh Huffalump Movie [Shadow] [H33t] [DivX] [Avi].avi (Size: 687.54 MB) (Files: 4)

 Winnie The Pooh Huffalump Movie [Shadow] [H33t] [DivX] [Avi].avi

687.47 MB

 Winnie The Pooh Huffalump Movie [Shadow] [H33t] [DivX] [Avi].txt

0.42 KB

 heffalump1.jpg

31.85 KB

 heffalump2.jpg

39.21 KB
 

Announce URL: http://mazysnuthouse.org/announce.php?passkey=tssespecialtorrentv1byxamsep2007

Torrent description

----------------------------------------------------------------------------------------------------------------
Description/TagLines
----------------------------------------------------------------------------------------------------------------

Heffa nice day.

There's something new in the Hundred Acre Wood.

----------------------------------------------------------------------------------------------------------------
Cast
----------------------------------------------------------------------------------------------------------------

Jim Cummings ... Winnie the Pooh / Tigger (voice)
John Fiedler ... Piglet (voice)
Nikita Hopkins ... Roo (voice)
Kath Soucie ... Kanga (voice)
Ken Sansom ... Rabbit (voice)
Peter Cullen ... Eeyore (voice)

Brenda Blethyn ... Mama Heffalump (voice)
Kyle Stanger ... Lumpy (voice)

----------------------------------------------------------------------------------------------------------------
File Info
----------------------------------------------------------------------------------------------------------------

----------------------------------------------------------------------------------------------------------------
General
----------------------------------------------------------------------------------------------------------------


Format : AVI
Format/Info : Audio Video Interleave
File size : 687 MiB
Duration : 1h 7mn
Overall bit rate : 1 414 Kbps
Writing application : Lavf51.12.1

----------------------------------------------------------------------------------------------------------------
Video
----------------------------------------------------------------------------------------------------------------

Format : MPEG-4 Visual
Format profile : [email protected]
Format settings, BVOP : No
Format settings, QPel : No
Format settings, GMC : No warppoints
Format settings, Matrix : Default
Codec ID : DX50
Codec ID/Hint : DivX 5
Duration : 1h 7mn
Bit rate : 1 273 Kbps
Width : 720 pixels
Height : 480 pixels
Display aspect ratio : 1.500
Frame rate : 23.976 fps
Standard : NTSC
Resolution : 24 bits
Colorimetry : 4:2:0
Scan type : Progressive
Bits/(Pixel*Frame) : 0.154
Stream size : 619 MiB (90%)
Writing library : Lavc51.40.4

----------------------------------------------------------------------------------------------------------------
Audio
----------------------------------------------------------------------------------------------------------------

Format : MPEG Audio
Format version : Version 1
Format profile : Layer 3
Codec ID : 55
Codec ID/Hint : MP3
Duration : 1h 7mn
Bit rate mode : Constant
Bit rate : 128 Kbps
Channel(s) : 2 channels
Sampling rate : 48.0 KHz
Resolution : 16 bits
Stream size : 62.2 MiB (9%)
Alignment : Aligned on interleaves
Interleave, duration : 24 ms (0.58 video frame)
Interleave, preload duration : 24 ms
Writing library : LAME3.97

related torrents

Torrent name

health leech seeds Size
 


comments (0)

Main Menu