Animation

WALLACE&GROMIT CURSE OF THE WERE [email protected] DVDRIP[ENG]

  • Download 5x Faster
  • Download torrent
  • Direct Download
  • Rate this torrent +  |  -

Torrent info

Name:WALLACE&GROMIT CURSE OF THE WERE [email protected] DVDRIP[ENG]

Total Size: 774.67 MB

Magnet: Magnet Link

Seeds: 19

Leechers: 8

Stream: Watch Online @ Movie4u

Last Updated: 2010-12-25 10:15:58 (Update Now)

Torrent added: 2009-08-30 15:43:52




Torrent Files List


WALLACE_AND_GROMIT (Size: 774.67 MB) (Files: 3)

 WALLACE_AND_GROMIT

  TITLE16.avi

774.63 MB

 Noname.jpg

44.04 KB

 Torrent downloaded from Demonoid.com.txt

0.05 KB
 

Announce URL: http://inferno.demonoid.com:3409/announce

Torrent description

Wallace=Master, Gromit=Mind!

5 years in the making, Nick Park's extraordinary stop-motion animation finally brings small screen favourites Wallace and Gromit to their very own fun-filled feature length film!

Cheese-loving Wallace and his clever canine chum Gromit are taking the local neighbourhood by storm with their humane pest-control enterprise "Anti-Pesto". However, when a mysterious vegetable ravaging beast begins attacking the town's sacred vegetable plot under cover of darkness, Lady Tottington commissions the dynamic duo to catch the fabled Were-Rabbit and save the day...

Format : AVI
Format/Info : Audio Video Interleave
File size : 775 MiB
Duration : 1h 21mn
Overall bit rate : 1 335 Kbps

Video
Format : MPEG-4 Visual
Format profile : [email protected]
Format settings, BVOP : No
Format settings, QPel : No
Format settings, GMC : No warppoints
Format settings, Matrix : Default
Codec ID : XVID
Codec ID/Hint : XviD
Duration : 1h 21mn
Bit rate : 1 195 Kbps
Width : 640 pixels
Height : 360 pixels
Display aspect ratio : 16/9
Frame rate : 25.000 fps
Resolution : 24 bits
Colorimetry : 4:2:0
Scan type : Progressive
Bits/(Pixel*Frame) : 0.207
Stream size : 693 MiB (89%)
Writing library : Magic0432

Audio
Format : MPEG Audio
Format version : Version 1
Format profile : Layer 3
Codec ID : 55
Codec ID/Hint : MP3
Duration : 1h 21mn
Bit rate mode : Constant
Bit rate : 128 Kbps
Channel(s) : 2 channels
Sampling rate : 44.1 KHz
Resolution : 16 bits
Stream size : 74.3 MiB (10%)
Alignment : Aligned on interleaves
Interleave, duration : 26 ms (0.65 video frame)
Writing library : LAME3.97

related torrents

Torrent name

health leech seeds Size
 

comments (0)

Main Menu