Animation

Wall E [2008] DVDRip N!CK [Re Rls]

  • Download 5x Faster
  • Download torrent
  • Direct Download
  • Rate this torrent +  |  -
Wall E [2008] DVDRip N!CK [Re Rls]

Free and Direct Download with Usenet 300GB+ free


Torrent info

Name:Wall E [2008] DVDRip N!CK [Re Rls]

Total Size: 0.25 KB

Magnet: Magnet Link

Seeds: 0

Leechers: 0

Stream: Watch Online @ Movie4u

Last Updated: 2010-02-28 12:22:38 (Update Now)

Torrent added: 2009-08-30 15:42:01




Torrent Files List


Read Info.txt (Size: 0.25 KB) (Files: 1)

 Read Info.txt

0.25 KB
 

Announce URL: http://tracker.openbittorrent.com:80/announce

Torrent description

General
Complete name : C:\Wall-E [2008] DVDRip - N!CK\Wall-E [2008] DVDRip - N!CK.avi
Format : AVI
Format/Info : Audio Video Interleave
File size : 700 MiB
Duration : 1h 37mn
Overal bit rate : 1004 Kbps

Video
Format : MPEG-4 Visual
Format profile : Streaming [email protected]
Format settings, BVOP : Yes
Format settings, QPel : No
Format settings, GMC : No warppoints
Format settings, Matrix : Default
Codec ID : XVID
Codec ID/Hint : XviD
Duration : 1h 37mn
Bit rate : 895 Kbps
Width : 720 pixels
Height : 304 pixels
Display aspect ratio : 2.35
Frame rate : 23.976 fps
Resolution : 8 bits
Colorimetry : 4:2:0
Scan type : Progressive
Bits/(Pixel*Frame) : 0.171
Stream size : 624 MiB
Writing library : XviD 50

Audio
Format : MPEG Audio
Format version : Version 1
Format profile : Layer 3
Codec ID : 55
Codec ID/Hint : MP3
Bit rate mode : Constant
Bit rate : 96.0 Kbps
Channel(s) : 2 channels
Sampling rate : 48.0 KHz
Resolution : 16 bits
Stream size : 66.9 MiB

related torrents

Torrent name

health leech seeds Size

Wall e [2008] Dvdrip N!ck

0 7 710.00 MB 0
 

comments (0)

Main Menu