Animation

Familie Feuerstein Staffel 4 DVDRip German Xvid

  • Download 5x Faster
  • Download torrent
  • Direct Download
  • Rate this torrent +  |  -
Familie Feuerstein Staffel 4 DVDRip German Xvid

Free and Direct Download with Usenet.nl 300GB+ free


Torrent info

Name:Familie Feuerstein Staffel 4 DVDRip German Xvid

Total Size: 5.92 GB

Magnet: Magnet Link

Seeds: 0

Leechers: 0

Stream: Watch Online @ Movie4u

Last Updated: 2010-10-03 09:00:56 (Update Now)

Torrent added: 2009-08-30 15:20:48





Torrent Files List


Familie_Feuerstein_-_4_Staffel_Episode_01.avi (Size: 5.92 GB) (Files: 28)

 Familie_Feuerstein_-_4_Staffel_Episode_01.avi

233.02 MB

 Familie_Feuerstein_-_4_Staffel_Episode_02.avi

233.09 MB

 Familie_Feuerstein_-_4_Staffel_Episode_03.avi

233.11 MB

 Familie_Feuerstein_-_4_Staffel_Episode_04.avi

233.02 MB

 Familie_Feuerstein_-_4_Staffel_Episode_05.avi

233.08 MB

 Familie_Feuerstein_-_4_Staffel_Episode_06.avi

233.07 MB

 Familie_Feuerstein_-_4_Staffel_Episode_07.avi

232.78 MB

 Familie_Feuerstein_-_4_Staffel_Episode_08.avi

232.97 MB

 Familie_Feuerstein_-_4_Staffel_Episode_09.avi

233.05 MB

 Familie_Feuerstein_-_4_Staffel_Episode_10.avi

233.01 MB

 Familie_Feuerstein_-_4_Staffel_Episode_11.avi

233.11 MB

 Familie_Feuerstein_-_4_Staffel_Episode_12.avi

233.01 MB

 Familie_Feuerstein_-_4_Staffel_Episode_13.avi

233.11 MB

 Familie_Feuerstein_-_4_Staffel_Episode_14.avi

233.02 MB

 Familie_Feuerstein_-_4_Staffel_Episode_15.avi

233.04 MB

 Familie_Feuerstein_-_4_Staffel_Episode_16.avi

233.11 MB

 Familie_Feuerstein_-_4_Staffel_Episode_17.avi

233.06 MB

 Familie_Feuerstein_-_4_Staffel_Episode_18.avi

233.10 MB

 Familie_Feuerstein_-_4_Staffel_Episode_19.avi

233.01 MB

 Familie_Feuerstein_-_4_Staffel_Episode_20.avi

232.97 MB

 Familie_Feuerstein_-_4_Staffel_Episode_21.avi

233.01 MB

 Familie_Feuerstein_-_4_Staffel_Episode_22.avi

232.92 MB

 Familie_Feuerstein_-_4_Staffel_Episode_23.avi

233.11 MB

 Familie_Feuerstein_-_4_Staffel_Episode_24.avi

233.06 MB

 Familie_Feuerstein_-_4_Staffel_Episode_25.avi

233.05 MB

 Familie_Feuerstein_-_4_Staffel_Episode_26.avi

233.06 MB

 ff4.jpg

50.61 KB

 nfo.nfo

3.26 KB
 

Announce URL: http://irrenhaus.dyndns.dk/announce.php

Torrent description

Die Serie spielt in der steinzeitlichen Stadt Steintal (in den neuen Synchronfassungen Felsental) (OT: Bedrock),
wobei die Gesellschaft mit der des amerikanischen Mittelstandes des 20. Jahrhunderts vergleichbar ist. In dieser
Stadt leben Dinosaurier, Sbelzahntiger, Mammuts und andere lngst ausgestorbene Tiere zusammen mit Hhlenmenschen,
welche aber bereits ber angepasste heutige Technologien verfgen. Die Charaktere fahren Autos aus Steinen, Holz und
Tierfellen, oft werden die eigenen Fsse als Hilfsmotor eingesetzt. Obwohl die Serie in der Steinzeit spielt, hielt
es die Macher nicht davon ab, eine Weihnachtsepisode sowie weitere Weihnachtsspecials zu
produzieren.

4. Staffel
89. Basalta Steinsand auf Tournee
90. Der liebe Nachwuchs
91. Der kleine Bamm-Bamm
92. Der verschwundene Dino
93. So ein Affenzirkus
94. Freds Kanariensteiner
95. Fred als Erfinder
96. Fred als Baseballstar
97. Lady Tatterstein
98. Se Trume
99. Die Kleptomanin Pebbles
100. Die Siegerin
101. Der Vterclub
102. Gib acht, Kamera
103. Fred der Feigling
104. Der geklonte Fred
105. Feuersteins Ferienreise
106. Der allerletzte Feuerstein
107. Der Lwe
108. Tglich eine gute Tat
109. Freundschaft
110. Die Aufnahmeprfung
111. Freds Hobby
112. Freds Monster-Job
113. Das Honigfelsen-Hotel
114. Die Hausfrau des Jahres

Format : AVI
Format/Info : Audio Video Interleave
Dateigre : 199 MiB
Duration : 25min
Gesamte Bitrate : 1098 Kbps
Verwendetes Programm : VirtualDubMod 1.5.4.1 (build 2178/release)
verwendete Encoder-Bibliothek : VirtualDubMod build 2178/release

Format : MPEG-4 Visual
Format settings, BVOP : Ja
Format settings, QPel : Nein
Format settings, GMC : No warppoints
Format settings, Matrix : Default
Codec ID : DX50
Codec ID/Hint : DivX 5
Duration : 25min
Bitrate : 863 Kbps
Breite : 512 Pixel
Hhe : 384 Pixel
Bildseitenverhltnis : 4/3
Bildwiederholungsrate : 25.000 FPS
Auflsung : 8 bits
Colorimetry : 4:2:0
Scan type : Progressive
Bits/(Pixel*Frame) : 0.176
Stream size : 156 MiB (79)
verwendete Encoder-Bibliothek : DivX 6.0.0 (UTC 2005-06-15)

Format : MPEG Audio
Format version : Version 1
Format profile : Layer 3
Codec ID : 55
Codec ID/Hint : MP3
Duration : 25min
Bitraten-Modus : Constant
Bitrate : 32.0 Kbps
Kanle : 2 Kanle
Samplingrate : 48.0 KHz
Auflsung : 16 bits
Stream size : 19.4 MiB (10)
Alignment : Aligned on interleaves
Interleave, duration : 24 ms (0.60 video frame)
Interleave, preload duration : 504 ms
verwendete Encoder-Bibliothek : LAME3.96.1
Details

Basics
Erscheinungsjahr: 1962
Genre: Kinderserie
Source: DVD
Spieldauer: ewig
FSK: o.a
Link: http://www.digitalvd.de/dvds/50967,Familie-Feuerstein---Staffel-4.html

Video
Videobitrate: ~1100kbps
Videoauflösung: 512*384

Audio
Audioformat: Layer 3
Audiobitrate: 32kbps
Sprache: Deutsch

related torrents

Torrent name

health leech seeds Size
 

comments (0)

Main Menu