Animation

Cars (2006) [DvDrip DivX7][Eng + Greek Lang] Omifast

  • Download 5x Faster
  • Download torrent
  • Direct Download
  • Rate this torrent +  |  -
Cars (2006) [DvDrip DivX7][Eng + Greek Lang] Omifast

Anonymous and Free Direct Download 300GB+


Torrent info

Name:Cars (2006) [DvDrip DivX7][Eng + Greek Lang] Omifast

Total Size: 710.46 MB

Magnet: Magnet Link

Seeds: 0

Leechers: 0

Stream: Watch Online @ Movie4u

Last Updated: 2012-04-08 17:57:39 (Update Now)

Torrent added: 2009-08-30 15:19:50



VPN For Torrents

Torrent Files List


Info Documents (Size: 710.46 MB) (Files: 15)

 Info Documents

  English Info.rtf

0.66 KB

  Greek - Divx7 video.doc

1.26 KB

  Greek Info.doc

1.89 KB

  Media Info.txt

2.79 KB

 Snapshots

  Cars - Sample_1.jpg

41.32 KB

  Cars - Sample_2.jpg

21.66 KB

  Cars - Sample_3.jpg

60.52 KB

  Cars - Sample_4.jpg

73.91 KB

  Cars - Sample_5.jpg

77.34 KB

  Cars - Sample_6.jpg

47.98 KB

  Cars - Sample_7.jpg

61.75 KB

  Cars - Sample_8.jpg

43.10 KB

 Cars - Sample.divx

9.79 MB

 Cars - Trailer.mp4

5.42 MB

 Cars.divx

694.83 MB
 

Announce URL:

Torrent description

GREEK and ENGLISH Languages

To view the subtitles or change languages on PC, download and install DivX7 player
http://www.divx.com/en/win

To view the movie on TV, just burn the video on a dvd disk.

Movie Sample, Trailer, Snapshots and Info.txt Included.

-------------------------------------------------------------------------------

Cars (2006) Original DVD rip to DivX7 pro
http://www.imdb.com/title/tt0317219/

Plot: Lightning McQueen, a hotshot rookie race car driven to succeed, discovers that life is about the journey, not the finish line, when he finds himself unexpectedly detoured in the sleepy Route 66 town of Radiator Springs. On route across the country to the big Piston Cup Championship in California to compete against two seasoned pros, McQueen gets to know the town's offbeat characters--including Sally, a snazzy 2002 Porsche, Doc Hudson, a 1951 Hudson Hornet with a mysterious past, and Mater, a rusty but trusty tow truck, who help him realize that there are more important things than trophies, fame and sponsorship.

----------------------------------------------------------------------

Direct Download, Photo, Trailer, and Full Synopsis in Greek and English:
www.omifast-mainmovies.blogspot.com

-----------------------------------------------------------------------

Format : DivX
Format/Info : Hack of AVI
File size : 695 MiB
Duration : 1h 51mn
Overall bit rate : 869 Kbps

Video
ID : 0
Format : MPEG-4 Visual
Format settings, BVOP : Yes
Format settings, QPel : No
Format settings, GMC : No warppoints
Format settings, Matrix : Default (H.263)
Muxing mode : Packed bitstream
Codec ID : DX50
Codec ID/Hint : DivX 5
Duration : 1h 51mn
Bit rate : 599 Kbps
Width : 720 pixels
Height : 576 pixels
Display aspect ratio : 16:9
Frame rate : 25.000 fps
Standard : PAL
Resolution : 24 bits
Colorimetry : 4:2:0
Scan type : Progressive
Bits/(Pixel*Frame) : 0.058
Stream size : 479 MiB (69%)
Title : Video
Writing library : DivX 2151

Audio #1
ID : 1
Format : MPEG Audio
Format version : Version 1
Format profile : Layer 3
Codec ID : 55
Codec ID/Hint : MP3
Duration : 1h 51mn
Bit rate mode : Constant
Bit rate : 128 Kbps
Channel(s) : 2 channels
Sampling rate : 48.0 KHz
Resolution : 16 bits
Stream size : 102 MiB (15%)
Alignment : Split accross interleaves
Interleave, duration : 40 ms (1.00 video frame)
Interleave, preload duration : 500 ms
Title : Audio En

Audio #2
ID : 2
Format : MPEG Audio
Format version : Version 1
Format profile : Layer 3
Codec ID : 55
Codec ID/Hint : MP3
Duration : 1h 51mn
Bit rate mode : Constant
Bit rate : 128 Kbps
Channel(s) : 2 channels
Sampling rate : 48.0 KHz
Resolution : 16 bits
Stream size : 102 MiB (15%)
Alignment : Split accross interleaves
Interleave, duration : 40 ms (1.00 video frame)
Interleave, preload duration : 500 ms
Title : Audio Gr

-------------------------------------------------------------------------------
http://www.mininova.org/user/OmiTheGreek

related torrents

Torrent name

health leech seeds Size
 


comments (0)

Main Menu