Adventure

6 Tage 7 Nächte HDTV 720p DD5 1 x264 MMI

  • Download 5x Faster
  • Download torrent
  • Direct Download
  • Rate this torrent +  |  -
6 Tage 7 Nächte HDTV 720p DD5 1 x264 MMI

Anonymous and Free Direct Download 300GB+


Torrent info

Name:6 Tage 7 Nächte HDTV 720p DD5 1 x264 MMI

Total Size: 4.51 GB

Magnet: Magnet Link

Seeds: 2

Leechers: 0

Stream: Watch Online @ Movie4u

Last Updated: 2010-09-11 02:05:55 (Update Now)

Torrent added: 2009-08-30 15:13:32



VPN For Torrents

Torrent Files List


Six.Days.Seven.Nights.HDTV.720p.DD5.1.x264-MMI.mkv (Size: 4.51 GB) (Files: 1)

 Six.Days.Seven.Nights.HDTV.720p.DD5.1.x264-MMI.mkv

4.51 GB
 

Announce URL: http://dark-shadows.ath.cx/announce.php

Torrent description


Inhalt:
Action-Held Harrison Ford Air Force One, Indiana Jones in einem atemlosen Abenteuer, das als romantischer Urlaub beginnt, dann aber zum Kampf ums Überleben wird. Quinn Harris HARRISON FORD ist ein ruppiger Frachtpilot, der sein altes Flugzeug liebt und nichts mehr hasst als Touristen. Das Leben auf der Südseeinsel gefällt ihm... bis er Robin Monroe ANNE HECHE - Volcano begegnet, die mit ihrem Verlobten gerade Urlaub macht. Da Harris der einzige verfügbare Pilot weit und breit ist, soll er die scharfzüngige New Yorker Journalistin zu einem wichtigen Termin nach Tahiti fliegen. Doch mitten in einem heftigen Unwetter muss Quinn seine Maschine auf einer einsamen und abgelegenen Insel notlanden. Das ungleiche Paar ist die folgenden Tage und Nächte im Dschungel auf sich alleine gestellt. Doch das raue Leben in der Wildnis zähmt selbst diese beiden Streithähne... Nichts für Pauschaltouristen.


Info:
General
Format : Matroska
File size : 4.51 GiB
Duration : 1h 41mn
Overall bit rate : 6 333 Kbps
Encoded date : UTC 2008-07-07 09:44:04
Writing application : mkvmerge v2.2.0
Writing library : libebml v0.7.7 + libmatroska v0.8.1

Video
ID : 1
Format : AVC
Format/Info : Advanced Video Codec
Format profile : [email protected]
Format settings, CABAC : Yes
Format settings, ReFrames : 8 frames
Muxing mode : Container [email protected]
Codec ID : V_MPEG4/ISO/AVC
Duration : 1h 41mn
Bit rate : 5 631 Kbps
Nominal bit rate : 5 754 Kbps
Width : 1 280 pixels
Height : 720 pixels
Display aspect ratio : 16:9
Frame rate : 23.976 fps
Resolution : 24 bits
Colorimetry : 4:2:0
Scan type : Progressive
Bits/(Pixel*Frame) : 0.255
Stream size : 4.01 GiB (89)
Writing library : x264 core 56 svn-680


Audio #1
ID : 2
Format : AC-3
Format/Info : Audio Coding 3
Codec ID : A_AC3
Duration : 1h 41mn
Bit rate mode : Constant
Bit rate : 384 Kbps
Channel(s) : 2 channels
Channel positions : L R
Sampling rate : 48.0 KHz
Stream size : 280 MiB (6)

Audio #2
ID : 3
Format : AC-3
Format/Info : Audio Coding 3
Format profile : Dolby Digital
Codec ID : A_AC3
Duration : 1h 41mn
Bit rate mode : Constant
Bit rate : 192 Kbps
Channel(s) : 2 channels
Channel positions : L R
Sampling rate : 48.0 KHz
Stream size : 140 MiB (3)
Language : German

related torrents

Torrent name

health leech seeds Size
 


comments (0)

Main Menu