She Devil (1989) DVDrip opt French Subs

  • Download 5x Faster
  • Download torrent
  • Direct Download
  • Rate this torrent +  |  -
She Devil (1989) DVDrip opt French Subs

Free and Direct Download with 300GB+ free

Torrent info

Name:She Devil (1989) DVDrip opt French Subs

Total Size: 694.19 MB

Magnet: Magnet Link

Seeds: 1

Leechers: 0

Stream: Watch Online @ Movie4u

Last Updated: 2015-08-17 16:19:57 (Update Now)

Torrent added: 2008-07-02 03:34:56

Torrent Files List

Notes on subtitle files.txt (Size: 694.19 MB) (Files: 3)

 Notes on subtitle files.txt

1.68 KB


693.40 MB


802.91 KB


leech seeds

Torrent description

She Devil (1989)
DVDrip English, with optional French subtitles in separate idx/sub files.

With Roseanne Barr, Ed Begley Jr. and Linda Hunt

Roseanne Barr and Meryl Streep battle it out in the wacky comedy SHE-DEVIL.

Mary Fisher (Streep) is a romance novelist who lives in a pink palace by the sea. Ruth Patchett (Barr) is a frumpy housewife with a bad attitude. They have one thing in common - Bob( Ed Begley Jr) - Mary's lover and Ruth's husband!

Ruth decides to get even with her louse of a spouse, so she blows up the house, and frames Bob for embezzlement. Along the way Ruth also digs up Mary's mother in a decaying nursing home, and decides a "family reunion" is needed....!

Based on the novel "The Life and Loves of the She-Devil" by Fay Weldon, this is a charming film. If you loved DEATH BECOMES HER you will flip over SHE-DEVIL.

Also starring Linda Hunt and Sylvia Miles.

Widescreen 704x384, good stereo sound. Burn tested, runs well in both my standalone DivX players.

Format/Info : Audio Video Interleave
File size : 693 MiB
Duration : 1h 39mn
Overal bit rate : 977 Kbps

Format : MPEG-4 Visual
Format profile : Streaming [email protected]
Format settings, BVOP : Yes
Format settings, QPel : No
Format settings, GMC : No warppoints
Format settings, Matrix : Default
Muxing mode : Packet Bitstream
Codec ID : XVID
Codec ID/Hint : XviD
Duration : 1h 39mn
Bit rate : 839 Kbps
Width : 704 pixels
Height : 384 pixels
Display aspect ratio : 16/9
Frame rate : 23.976 fps
Resolution : 8 bits
Colorimetry : 4:2:0
Scan type : Progressive
Bits/(Pixel*Frame) : 0.129
Stream size : 596 MiB
Writing library : XviD 1.2.0.dev47 (UTC 2006-11-01)

Format : MPEG Audio
Format version : Version 1
Format profile : Layer 3
Codec ID : 55
Codec ID/Hint : MP3
Duration : 1h 39mn
Bit rate mode : Constant
Bit rate : 128 Kbps
Minimum bit rate : 128 Kbps
Channel(s) : 2 channels
Sampling rate : 48.0 KHz
Resolution : 16 bits
Stream size : 90.9 MiB
Writing library : LAME3.97
Encoding settings : CBR

Thanks to Kuthumi!

related torrents

Torrent name

health leech seeds Size

She devil (1989)

0 1 700.00 MB 0

comments (0)

Main Menu