Action

Hell Ride Limited Ger Eng 1080p BluRay x264 REFiNED mkv

  • Download 5x Faster
  • Download torrent
  • Direct Download
  • Rate this torrent +  |  -
Hell Ride Limited Ger Eng 1080p BluRay x264 REFiNED mkv

Free and Direct Download with Usenet.nl 300GB+ free


Torrent info

Name:Hell Ride Limited Ger Eng 1080p BluRay x264 REFiNED mkv

Total Size: 7.33 GB

Magnet: Magnet Link

Seeds: 0

Leechers: 0

Stream: Watch Online @ Movie4u

Last Updated: 2013-02-28 21:05:02 (Update Now)

Torrent added: 2009-08-30 14:17:18





Torrent Files List


Hell.Ride.LIMITED.Ger-Eng.1080p.BluRay.x264-REFiNED.mkv (Size: 7.33 GB) (Files: 1)

 Hell.Ride.LIMITED.Ger-Eng.1080p.BluRay.x264-REFiNED.mkv

7.33 GB
 

Announce URL:

Torrent description

Pistolero (Larry Bishop), The Gent (Michael Madsen) und Comanche (Eric Balfour) sind die Anfhrer der Biker-Gang "The Victors".
Die rivalisierenden "666er" haben ein Victors-Mitglied hingerichtet und die drei sind zu allem bereit, um den Feind in Gestalt
von The Deuce (David Carradine), Billy Wings (Vinnie Jones) und Eddie Zero (Dennis Hopper) zur Strecke zu bringen.
Comanche und Pistolero nutzen zudem die Gelegenheit, um fr ein 30 Jahre zurckliegendes Verbrechen brutal Rache zu nehmen.

Produziert wird der Film von Quentin Tarantino.
Sein Kumpel Larry Bishop schrieb das Drehbuch, fuehrt Regie und ist in der Hauptrolle zu sehen.

General
Complete name : Hell.Ride.LIMITED.Ger-Eng.1080p.BluRay.x264-REFiNED.mkv
Format : Matroska
Duration : 1h 24mn
Overall bit rate : 701 Kbps
Encoded date : UTC 2009-07-31 13:05:02
Writing application : mkvmerge v2.0.2 ('You're My Flame') built on May 3 2008 17:17:14
Writing library : libebml v0.7.7 + libmatroska v0.8.1

Video
ID : 1
Format : AVC
Format/Info : Advanced Video Codec
Format profile : [email protected]
Format settings, CABAC : Yes
Format settings, ReFrames : 5 frames
Muxing mode : Container [email protected]
Codec ID : V_MPEG4/ISO/AVC
Duration : 1h 23mn
Nominal bit rate : 10.6 Mbps
Width : 1 920 pixels
Height : 816 pixels
Display aspect ratio : 2.35
Frame rate : 23.976 fps
Resolution : 24 bits
Colorimetry : 4:2:0
Scan type : Progressive
Bits/(Pixel*Frame) : 0.281
Writing library : x264 core 65 r999M cc51047
Encoding settings : cabac=1 / ref=5 / deblock=1:0:0 / analyse=0x3:0x113 / me=umh / subme=8 / psy_rd=1.0:0.0 / mixed_ref=1 / me_range=16 / chroma_me=1 / trellis=1 / 8x8dct=1 / cqm=0 / deadzone=21,11 / chroma_qp_offset=-2 / threads=12 / nr=0 / decimate=1 / mbaff=0 / bframes=3 / b_pyramid=1 / b_adapt=1 / b_bias=0 / direct=3 / wpredb=1 / keyint=250 / keyint_min=25 / scenecut=40(pre) / rc=2pass / bitrate=10565 / ratetol=1.0 / qcomp=0.60 / qpmin=10 / qpmax=51 / qpstep=4 / cplxblur=20.0 / qblur=0.5 / ip_ratio=1.40 / pb_ratio=1.30 / aq=1:1.00
Language : English

Audio #1
ID : 2
Format : AC-3
Format/Info : Audio Coding 3
Codec ID : A_AC3
Duration : 1h 24mn
Bit rate mode : Constant
Bit rate : 448 Kbps
Channel(s) : 6 channels
Channel positions : Front: L C R, Surround: L R, LFE
Sampling rate : 48.0 KHz
Stream size : 269 MiB (64)
Title : German [email protected] by SethGecko
Language : German

Audio #2
ID : 3
Format : DTS
Format/Info : Digital Theater Systems
Codec ID : A_DTS
Duration : 1h 24mn
Bit rate mode : Constant
Bit rate : 1 510 Kbps
Channel(s) : 6 channels
Channel positions : Front: L C R, Surround: L R, LFE
Sampling rate : 48.0 KHz
Resolution : 24 bits
Stream size : 907 MiB
Title : DTS 5.1 1536kbps
Language : English

Text
ID : 4
Format : UTF-8
Codec ID : S_TEXT/UTF8
Codec ID/Info : UTF-8 Plain Text
Language : English

related torrents

Torrent name

health leech seeds Size
 

comments (0)

Main Menu