Action

Eraser 1996 720p BluRay x264 ESiR [

  • Download 5x Faster
  • Download torrent
  • Direct Download
  • Rate this torrent +  |  -
Eraser 1996 720p BluRay x264 ESiR [

Anonymous and Direct Download 300GB+ free


Torrent info

Name:Eraser 1996 720p BluRay x264 ESiR [

Total Size: 4.37 GB

Magnet: Magnet Link

Seeds: 0

Leechers: 0

Stream: Watch Online @ Movie4u

Last Updated: 2015-12-04 23:27:29 (Update Now)

Torrent added: 2009-08-30 14:13:31




Torrent Files List


eraser-720p.part090.rar (Size: 4.37 GB) (Files: 96)

 eraser-720p.part090.rar

47.68 MB

 eraser-720p.part068.rar

47.68 MB

 eraser-720p.part038.rar

47.68 MB

 eraser-720p.part088.rar

47.68 MB

 eraser-720p.part012.rar

47.68 MB

 eraser-720p.part075.rar

47.68 MB

 eraser-720p.part036.rar

47.68 MB

 eraser-720p.part054.rar

47.68 MB

 eraser-720p.part064.rar

47.68 MB

 eraser-720p.part013.rar

47.68 MB

 eraser-720p.part031.rar

47.68 MB

 eraser-720p.part074.rar

47.68 MB

 eraser-720p.part060.rar

47.68 MB

 eraser-720p.part057.rar

47.68 MB

 eraser-720p.part046.rar

47.68 MB

 eraser-720p.part024.rar

47.68 MB

 eraser-720p.part009.rar

47.68 MB

 eraser-720p.part079.rar

47.68 MB

 eraser-720p.part078.rar

47.68 MB

 eraser-720p.part062.rar

47.68 MB

 eraser-720p.part081.rar

47.68 MB

 eraser-720p.part005.rar

47.68 MB

 eraser-720p.part047.rar

47.68 MB

 eraser-720p.part033.rar

47.68 MB

 eraser-720p.part021.rar

47.68 MB

 eraser-720p.part050.rar

47.68 MB

 eraser-720p.part084.rar

47.68 MB

 eraser-720p.part073.rar

47.68 MB

 eraser-720p.part082.rar

47.68 MB

 eraser-720p.part048.rar

47.68 MB

 eraser-720p.part091.rar

47.68 MB

 eraser-720p.part022.rar

47.68 MB

 eraser-720p.part027.rar

47.68 MB

 eraser-720p.part051.rar

47.68 MB

 eraser-720p.part032.rar

47.68 MB

 eraser-720p.part041.rar

47.68 MB

 eraser-720p.part065.rar

47.68 MB

 eraser-720p.part061.rar

47.68 MB

 eraser-720p.part039.rar

47.68 MB

 eraser-720p.part086.rar

47.68 MB

 eraser-720p.part083.rar

47.68 MB

 eraser-720p.part010.rar

47.68 MB

 eraser-720p.part020.rar

47.68 MB

 eraser-720p.part071.rar

47.68 MB

 eraser-720p.part042.rar

47.68 MB

 eraser-720p.part044.rar

47.68 MB

 eraser-720p.part011.rar

47.68 MB

 eraser-720p.part085.rar

47.68 MB

 eraser-720p.part049.rar

47.68 MB

 eraser-720p.part004.rar

47.68 MB

 eraser-720p.part016.rar

47.68 MB

 eraser-720p.part028.rar

47.68 MB

 eraser-720p.part029.rar

47.68 MB

 eraser-720p.part045.rar

47.68 MB

 eraser-720p.part056.rar

47.68 MB

 eraser-720p.part008.rar

47.68 MB

 eraser-720p.part072.rar

47.68 MB

 eraser-720p.part052.rar

47.68 MB

 eraser-720p.part058.rar

47.68 MB

 eraser-720p.part014.rar

47.68 MB

 eraser-720p.part070.rar

47.68 MB

 eraser-720p.part092.rar

47.68 MB

 eraser-720p.part019.rar

47.68 MB

 eraser-720p.part026.rar

47.68 MB

 eraser-720p.part087.rar

47.68 MB

 eraser-720p.part037.rar

47.68 MB

 eraser-720p.part080.rar

47.68 MB

 eraser-720p.part006.rar

47.68 MB

 eraser-720p.part025.rar

47.68 MB

 eraser-720p.part030.rar

47.68 MB

 eraser-720p.part063.rar

47.68 MB

 eraser-720p.part093.rar

47.68 MB

 eraser-720p.part055.rar

47.68 MB

 eraser-720p.part067.rar

47.68 MB

 eraser-720p.part023.rar

47.68 MB

 eraser-720p.part059.rar

47.68 MB

 eraser-720p.part043.rar

47.68 MB

 eraser-720p.part001.rar

47.68 MB

 eraser-720p.part034.rar

47.68 MB

 eraser-720p.part069.rar

47.68 MB

 eraser-720p.part040.rar

47.68 MB

 eraser-720p.part089.rar

47.68 MB

 eraser-720p.part077.rar

47.68 MB

 eraser-720p.part015.rar

47.68 MB

 eraser-720p.part035.rar

47.68 MB

 eraser-720p.part018.rar

47.68 MB

 eraser-720p.part017.rar

47.68 MB

 eraser-720p.part002.rar

47.68 MB

 eraser-720p.part003.rar

47.68 MB

 eraser-720p.part053.rar

47.68 MB

 eraser-720p.part007.rar

47.68 MB

 eraser-720p.part076.rar

47.68 MB

 eraser-720p.part066.rar

47.68 MB

 eraser-720p.part094.rar

44.79 MB

 Eraser.1996.720p.BluRay.x264-ESiR.sfv

9.38 KB

 Eraser.1996.720p.BluRay.x264-ESiR.nfo

3.82 KB
 

tracker

leech seeds
 

Torrent description

Eraser 1996 720p BluRay x264-ESiR

Genre: Action,Drama,Thriller
Year: 1996

Plot:

John Kruger works for the witness relocation program as a U.S. Marshal. His job is to remove all traces of the identity of any witness in the program and to, as called for, eliminate threats against any of those witnesses. John works alone and is the best at what he does. When Lee Cullen, a high level executive with a U.S. weapons manufacturer, turns over evidence of illegal arms deals to the FBI, John is assigned to protect her. But they both soon find that the level of treason extends far past the Cyrex Corporation and into high levels of the government. John and Lee become the target of these money grubbing capitalist pigs and their survival depends upon John's ability to protect both of them

Seed This Torrent As Long As You Can!

IMDb Link: http://imdb.com/title/tt0116213/

MediaInfo:

Format: Matroska
File size: 4.37 GiB
Duration: 1h 54mn
Overall bit rate: 5 457 Kbps
Movie name: Eraser (1996)
Encoded date: UTC 2008-09-04 21:27:13
Writing application: mkvmerge v2.0.2 ('You're My Flame') built on Feb 21 2007 23:40:55
Writing library: libebml v0.7.7 + libmatroska v0.8.1
Cover: Yes / Yes / Yes

Video
ID: 1
Format: AVC
Format/Info: Advanced Video Codec
Format profile: [email protected]
Format settings, CABAC: Yes
Format settings, ReFrames: 5 frames
Muxing mode: Container [email protected]
Codec ID: V_MPEG4/ISO/AVC
Duration: 1h 54mn
Bit rate: 4 707 Kbps
Nominal bit rate: 4 813 Kbps
Width: 1 280 pixels
Height: 534 pixels
Display aspect ratio: 2.35
Frame rate: 23.976 fps
Resolution: 24 bits
Colorimetry: 4:2:0
Scan type: Progressive
Bits/(Pixel*Frame): 0.287
Stream size: 3.76 GiB (86%)
Writing library: x264 core 61 r947M af82aae
Encoding settings: cabac=1 / ref=5 / deblock=1:-3:-3 / analyse=0x3:0x133 / me=umh / subme=7 / psy_rd=0.9:0.0 / brdo=1 / mixed_ref=1 / me_range=16 / chroma_me=1 / trellis=0 / 8x8dct=1 / cqm=2 / deadzone=9,9 / chroma_qp_offset=-2 / threads=3 / nr=0 / decimate=1 / mbaff=0 / bframes=3 / b_pyramid=1 / b_adapt=1 / b_bias=0 / direct=1 / wpredb=1 / bime=1 / keyint=250 / keyint_min=25 / scenecut=40(pre) / rc=2pass / bitrate=4813 / ratetol=1.0 / rceq='blurCplx^(1-qComp)' / qcomp=1.00 / qpmin=10 / qpmax=51 / qpstep=4 / cplxblur=20.0 / qblur=0.5 / ip_ratio=1.40 / pb_ratio=1.30 / aq=2:0.80
Language: English

Audio
ID: 2
Format: AC-3
Format/Info: Audio Coding 3
Codec ID: A_AC3
Duration: 1h 54mn
Bit rate mode: Constant
Bit rate: 640 Kbps
Channel(s): 6 channels
Channel positions: Front: L C R, Surround: L R, LFE
Sampling rate: 48.0 KHz
Stream size: 524 MiB (12%)
Language: English

Text
ID: 3
Format: ASS
Codec ID: S_TEXT/ASS
Codec ID/Info: Advanced Sub Station Alpha

Language: English

related torrents

Torrent name

health leech seeds Size
 


comments (0)

Main Menu