Soundtracks

Stu Phillips Battlestar Galactica [EAC FLAC] [RePoPo]

  • Download 5x Faster
  • Download torrent
  • Direct Download
  • Rate this torrent +  |  -
Stu Phillips Battlestar Galactica [EAC FLAC] [RePoPo]

Anonymous and Free Direct Download 300GB+


Torrent info

Name:Stu Phillips Battlestar Galactica [EAC FLAC] [RePoPo]

Total Size: 205.64 MB

Magnet: Magnet Link

Seeds: 0

Leechers: 0

Stream: Watch Online @ Movie4u

Last Updated: 2010-09-24 22:47:04 (Update Now)

Torrent added: 2009-08-30 13:15:06



VPN For Torrents

Torrent Files List


COVERS (Size: 175.52 MB) (Files: 25)

 COVERS

  Stu Phillips - Battlestar Galactica Back.jpg

2.04 MB

  Stu Phillips - Battlestar Galactica Front.jpg

1.19 MB

 01.- Stu Phillips - Prologue,Maint Title.flac

16.46 MB

 02.- Stu Phillips - Battlestar Galactica Theme.flac

8.75 MB

 04.- Stu Phillips - Fighter Launch,Mysterious Derelict,Zac in Trouble.flac

15.02 MB

 05.- Stu Phillips - Adama's Theme,The Residue of War.flac

16.19 MB

 06.- Stu Phillips - Sex at Last,Cassiopea & Starbuck.flac

7.82 MB

 07.- Stu Phillips - Cylon Freighter,The Trap.flac

19.15 MB

 08.- Stu Phillips - Cylon Attack,The End of Atlantia.flac

12.70 MB

 09.- Stu Phillips - Symptoms,Boxey's Problems,Serena's Illness.flac

13.15 MB

 10.- Stu Phillips - Suffering.flac

7.20 MB

 11.- Stu Phillips - Red Nova.flac

13.24 MB

 12.- Stu Phillips - More than a Father,And the People Rejoiced.flac

4.50 MB

 13.- Stu Phillips - Ready Room,Scramble to Safety,Imperious Leader.flac

14.95 MB

 14.- Stu Phillips - Escape from the Ovion Mines.flac

10.02 MB

 15.- Stu Phillips - Dash to the Elevator.flac

5.56 MB

 17.- Stu Phillips - Exodus One,End Credits.flac

7.55 MB

 Battlestar Galactica.FLAC.accurip

1.85 KB

 Battlestar Galactica.FLAC.cue

3.48 KB

 Battlestar Galactica.WAV.cue

3.46 KB

 Stu Phillips - Battlestar Galactica [EAC-FLAC] [RePoPo].txt

5.76 KB

 Stu Phillips - Battlestar Galactica.log

7.43 KB

 Stu Phillips - Battlestar Galactica.m3u

1.89 KB

 Torrent downloaded from Demonoid.com.txt

0.05 KB

 Tracklist.txt

0.91 KB
 

Announce URL: http://inferno.demonoid.com:3416/announce

Torrent description

*******************************************************************************
Stu Phillips - Battlestar Galactica Soundtrack
*******************************************************************************


CD: Stu Phillips - Battlestar Galactica
YEAR: 1999 ID3G: 24

01. Prologue/Main Title [0:03:54.17]
02. Battlestar Galactica Theme [0:01:31.70]
03. The Destruction of Peace [0:04:03.40]
04. Fighter Launch/Mysterious Derelict/Zac in Trouble [0:03:20.25]
05. Adama's Theme/The Residue of War [0:04:27.40]
06. Sex at Last/Cassiopea & Starbuck [0:02:42.45]
07. Cylon Freighter/The Trap [0:03:59.35]
08. Cylon Attack/The End of Atlantia [0:02:17.73]
09. Symptoms/Boxey's Problems/Serena's Illness [0:03:56.57]
10. Suffering [0:02:25.55]
11. Red Nova [0:02:53.70]
12. More than a Father/And the People Rejoiced [0:01:13.20]
13. Ready Room/Scramble to Safety/Imperious Leader [0:03:36.48]
14. Escape from the Ovion Mines [0:02:15.47]
15. Dash to the Elevator [0:01:28.28]
16. Red & Blue/Destruction of Carillon [0:02:45.37]
17. Exodus One/End Credits [0:01:38.15]

-------------------------------------------------------------------------------
THE ALLMUSIC REVIEW
-------------------------------------------------------------------------------


Composer Stu Phillips, along with series creator Glen Larson, unleashed his most
memorable cue on the main title theme to the 1978 sci-fi television series
Battlestar Galactica. Edel company's CD release is mastered very hot, accenting
both the dynamics of the music and the lack of ambience in the original
recording (a trait common to many soundtracks for MCA productions during the
'70s).


-------------------------------------------------------------------------------
THE EAC LOG (EXTRACT)
-------------------------------------------------------------------------------

Exact Audio Copy V0.99 prebeta 4 from 23. January 2008

EAC extraction logfile from 11. July 2009, 11:35

Stu Phillips / Battlestar Galactica

Used drive : HL-DT-STDVD-RAM GSA-H55N Adapter: 0 ID: 0

Read mode : Secure
Utilize accurate stream : Yes
Defeat audio cache : Yes
Make use of C2 pointers : No

Read offset correction : 102
Overread into Lead-In and Lead-Out : No
Fill up missing offset samples with silence : Yes
Delete leading and trailing silent blocks : No
Null samples used in CRC calculations : Yes
Used interface : Installed external ASPI interface
Gap handling : Appended to previous track

Used output format : User Defined Encoder
Selected bitrate : 1024 kBit/s
Quality : High
Add ID3 tag : No
Command line compressor : F:Archivos de programaExact Audio
CopyFLACFLAC.EXE
Additional command line options : -8 -V -T "ARTIST=%a" -T "TITLE=%t" -T
"ALBUM=%g" -T "DATE=%y" -T "TRACKNUMBER=%n" -T "GENRE=%m" -T "COMMENT=%e" %s -o
%d


-------------------------------------------------------------------------------
THE ACCURIP REPORT
-------------------------------------------------------------------------------

[Verification date: 11/07/2009 11:39:03]
[Disc ID: 0020c2e8-0198645f-e40b5f11]
Track [ CRC ] Status
01 [211e2ff6] (04/04) Accurately ripped as in pressing(s) #1
02 [e7d2d3c2] (04/04) Accurately ripped as in pressing(s) #1
03 [e7d6b75a] (04/04) Accurately ripped as in pressing(s) #1
04 [9b804dd2] (04/04) Accurately ripped as in pressing(s) #1
05 [9b5c7ca0] (04/04) Accurately ripped as in pressing(s) #1
06 [ce8da84b] (04/04) Accurately ripped as in pressing(s) #1
07 [92124efc] (04/04) Accurately ripped as in pressing(s) #1
08 [fc210a2a] (04/04) Accurately ripped as in pressing(s) #1
09 [85bd120e] (04/04) Accurately ripped as in pressing(s) #1
10 [187c79c7] (04/04) Accurately ripped as in pressing(s) #1
11 [e54b1319] (04/04) Accurately ripped as in pressing(s) #1
12 [dcfec23f] (04/04) Accurately ripped as in pressing(s) #1
13 [5bf43c5b] (04/04) Accurately ripped as in pressing(s) #1
14 [896cf766] (04/04) Accurately ripped as in pressing(s) #1
15 [6b1418cf] (04/04) Accurately ripped as in pressing(s) #1
16 [c1ec49d0] (04/04) Accurately ripped as in pressing(s) #1
17 [9d6315e4] (04/04) Accurately ripped as in pressing(s) #1



-------------------------------------------------------------------------------
IMPORTANT: PLEASE READ (A REQUEST)
-------------------------------------------------------------------------------

It's usual to post comments only to complain about a torrent which doesn't work
in your configuration. It's normal, after a few hours/days downloading and
expecting a release, to feel deceived if it doesn't work properly, and
expressing this is legitimate.

I've often found one comment (negative) on a movie/CD downloaded by 2000+
people, and since that single negative feedback, people simply stop downloading
and therefore, sharing. But a few times it was due not to the torrent itself,
but to some issues on the downloader side (not updated codecs, misused
tools...), and that's unfair for the person who took the time to share it for
free.

IF YOU FIND THIS RELEASE DESERVES TO BE RECOMMENDED TO OTHERS, HELP BY DROPPING
A LINE AFTER YOU'VE CHECKED IT. This way, You'll help in keeping the torrent
alive, almost as much as keeping it in your HDD until a 1:1 ratio is
reached.

Thanks

-------------------------------------------------------------------------------
-------------------------------------------------------------------------------

related torrents

Torrent name

health leech seeds Size
 


comments (0)

Main Menu