TV - Other

F1 Belgian GP 2009 Race ThaiSchumi mkv

  • Download 5x Faster
  • Download torrent
  • Direct Download
  • Rate this torrent +  |  -
F1 Belgian GP 2009 Race ThaiSchumi mkv

Anonymous and Free Direct Download 300GB+


Torrent info

Name:F1 Belgian GP 2009 Race ThaiSchumi mkv

Total Size: 796.17 MB

Magnet: Magnet Link

Seeds: 0

Leechers: 0

Stream: Watch Online @ Movie4u

Last Updated: 2010-12-01 06:49:22 (Update Now)

Torrent added: 2009-08-30 12:37:44



VPN For Torrents

Torrent Files List


F1.Belgian.GP.2009.Race.ThaiSchumi.mkv (Size: 796.17 MB) (Files: 1)

 F1.Belgian.GP.2009.Race.ThaiSchumi.mkv

796.17 MB
 

Announce URL: http://tracker.openbittorrent.com:80/announce

Torrent description

F1 Belgian GP 2009 Race ThaiSchumi mkv
Source: TV NOVA (Czech)


General
Complete name : F1.Belgian.GP.2009.Race.ThaiSchumi.mkv
Format : Matroska
File size : 796 MiB
Duration : 1h 31mn
Overall bit rate : 1 220 Kbps

Video
ID : 1
Format : AVC
Format/Info : Advanced Video Codec
Format profile : [email protected]
Format settings, CABAC : Yes
Format settings, ReFrames : 1 frame
Muxing mode : Container [email protected]
Codec ID : V_MPEG4/ISO/AVC
Duration : 1h 31mn
Bit rate : 1 004 Kbps
Nominal bit rate : 1 024 Kbps
Width : 720 pixels
Height : 576 pixels
Display aspect ratio : 16:9
Frame rate : 25.000 fps
Standard : PAL
Resolution : 24 bits
Colorimetry : 4:2:0
Scan type : Progressive
Bits/(Pixel*Frame) : 0.097
Stream size : 655 MiB (82%)
Writing library : x264

Audio
ID : 2
Format : AC-3
Format/Info : Audio Coding 3
Codec ID : A_AC3
Duration : 1h 31mn
Bit rate mode : Constant
Bit rate : 192 Kbps
Channel(s) : 2 channels
Channel positions : L R
Sampling rate : 48.0 KHz
Stream size : 125 MiB (16%)

related torrents

Torrent name

health leech seeds Size
 


comments (0)

Main Menu