Soundtracks

Nightmare Revisited

  • Download 5x Faster
  • Download torrent
  • Direct Download
  • Rate this torrent +  |  -
Nightmare Revisited

Free and Direct Download with Usenet 300GB+ free


Torrent info

Name:Nightmare Revisited

Total Size: 454.18 MB

Magnet: Magnet Link

Seeds: 0

Leechers: 0

Stream: Watch Online @ Movie4u

Last Updated: 2011-08-26 02:42:36 (Update Now)

Torrent added: 2009-08-30 10:54:00




Torrent Files List


(01) DeVotchKa - Overture.flac (Size: 430.23 MB) (Files: 22)

 (01) DeVotchKa - Overture.flac

15.15 MB

 (02) Danny Elfman - Opening.flac

5.71 MB

 (04) The All-American Rejects - Jack's Lament.flac

20.56 MB

 (05) Amiina - Doctor Finkelstein - In the Forest.flac

14.45 MB

 (06) Flyleaf - What's This .flac

24.61 MB

 (07) The Polyphonic Spree - Town Meeting Song.flac

56.15 MB

 (08) The Vitamin String Quartet - Jack and Sally Montage.flac

28.21 MB

 (09) Sparklehorse - Jack's Obesession.flac

26.65 MB

 (10) KoRn - Kidnap the Sandy Claws.flac

27.30 MB

 (11) Rise Against - Making Christmas.flac

25.63 MB

 (12) Yoshida Brothers - Nabbed.flac

40.88 MB

 (13) Rodrigo y Gabriela - Oogie Boogie's Song.flac

16.97 MB

 (14) Amy Lee - Sally's Song.flac

18.40 MB

 (15) Rjd2 - Christmas Eve Montage.flac

24.49 MB

 (16) Plain White T's - Poor Jack.flac

15.84 MB

 (17) Datarock - To the Rescue.flac

23.01 MB

 (18) Shiny Toy Guns - Finale - Reprise.flac

18.29 MB

 (19) Danny Elfman - Closing.flac

8.34 MB

 (20) The Album Leaf - End Title.flac

19.57 MB

 Nightmare Revisited.cue

3.96 KB

 Various - Nightmare Revisited.log

16.57 KB

 Various - Nightmare Revisited.m3u

1.71 KB
 

Announce URL: http://pirates.sumotracker.com/announce

Torrent description

This is the new Nightmare Before Christmas cover CD \"Nightmare Revisited\"

Released 2008, this cover CD is absolutely amazing.

Amy Lee\'s \"Sally Song\" is great. Anyways...


This was ripped with EAC in secure mode and is in the FLAC format. Enjoy the lossless!

Included with the torrent is the CUE and LOG from EAC.



LOG:
Exact Audio Copy V0.99 prebeta 4 from 23. January 2008

EAC extraction logfile from 2. October 2008, 22:33

Various / Nightmare Revisited

Used drive : TEAC CDRWDVD DW224EV Adapter: 1 ID: 0

Read mode : Secure
Utilize accurate stream : Yes
Defeat audio cache : Yes
Make use of C2 pointers : No

Read offset correction : 102
Overread into Lead-In and Lead-Out : No
Fill up missing offset samples with silence : Yes
Delete leading and trailing silent blocks : No
Null samples used in CRC calculations : Yes
Used interface : Native Win32 interface for Win NT & 2000
Gap handling : Not detected, thus appended to previous track

Used output format : User Defined Encoder
Selected bitrate : 320 kBit/s
Quality : High
Add ID3 tag : No
Command line compressor : C:\\Program Files\\FLAC\\flac.exe
Additional command line options : -6 -V -T \"artist=%a\" -T \"title=%t\" -T \"album=%g\" -T \"date=%y\" -T \"tracknumber=%n\" -T \"genre=%m\" -T comment=\"%e\" -T \"comment=EAC (Secure Mode)\" %s


TOC of the extracted CD

Track | Start | Length | Start sector | End sector
---------------------------------------------------------
1 | 0:00.00 | 2:36.30 | 0 | 11729
2 | 2:36.30 | 1:00.07 | 11730 | 16236
3 | 3:36.37 | 3:22.73 | 16237 | 31459
4 | 6:59.35 | 3:15.37 | 31460 | 46121
5 | 10:14.72 | 3:17.65 | 46122 | 60961
6 | 13:32.62 | 3:20.13 | 60962 | 75974
7 | 16:53.00 | 8:55.50 | 75975 | 116149
8 | 25:48.50 | 5:44.45 | 116150 | 141994
9 | 31:33.20 | 5:32.07 | 141995 | 166901
10 | 37:05.27 | 3:37.18 | 166902 | 183194
11 | 40:42.45 | 3:27.15 | 183195 | 198734
12 | 44:09.60 | 7:34.47 | 198735 | 232831
13 | 51:44.32 | 2:48.20 | 232832 | 245451
14 | 54:32.52 | 3:02.40 | 245452 | 259141
15 | 57:35.17 | 3:46.08 | 259142 | 276099
16 | 61:21.25 | 2:34.40 | 276100 | 287689
17 | 63:55.65 | 3:34.22 | 287690 | 303761
18 | 67:30.12 | 3:06.38 | 303762 | 317749
19 | 70:36.50 | 1:24.42 | 317750 | 324091
20 | 72:01.17 | 3:46.38 | 324092 | 341079


Track 1

Filename C:\\Users\\Devon\\Music\\Soundtracks\\Nightmare Revisited\\(01) DeVotchKa - Overture.wav

Peak level 99.8 %
Track quality 99.9 %
Test CRC F9B013AF
Copy CRC F9B013AF
Track not present in AccurateRip database
Copy OK

Track 2

Filename C:\\Users\\Devon\\Music\\Soundtracks\\Nightmare Revisited\\(02) Danny Elfman - Opening.wav

Peak level 97.6 %
Track quality 99.8 %
Test CRC 11AAFF1E
Copy CRC 11AAFF1E
Track not present in AccurateRip database
Copy OK

Track 3

Filename C:\\Users\\Devon\\Music\\Soundtracks\\Nightmare Revisited\\(03) Marilyn Manson - This is Halloween.wav

Peak level 91.2 %
Track quality 100.0 %
Test CRC 8C81F2C1
Copy CRC 8C81F2C1
Track not present in AccurateRip database
Copy OK

Track 4

Filename C:\\Users\\Devon\\Music\\Soundtracks\\Nightmare Revisited\\(04) The All-American Rejects - Jack\'s Lament.wav

Peak level 91.4 %
Track quality 100.0 %
Test CRC 7D858524
Copy CRC 7D858524
Track not present in AccurateRip database
Copy OK

Track 5

Filename C:\\Users\\Devon\\Music\\Soundtracks\\Nightmare Revisited\\(05) Amiina - Doctor Finkelstein - In the Forest.wav

Peak level 98.7 %
Track quality 100.0 %
Test CRC 2BC69DF5
Copy CRC 2BC69DF5
Track not present in AccurateRip database
Copy OK

Track 6

Filename C:\\Users\\Devon\\Music\\Soundtracks\\Nightmare Revisited\\(06) Flyleaf - What\'s This .wav

Peak level 96.5 %
Track quality 100.0 %
Test CRC 00217548
Copy CRC 00217548
Track not present in AccurateRip database
Copy OK

Track 7

Filename C:\\Users\\Devon\\Music\\Soundtracks\\Nightmare Revisited\\(07) The Polyphonic Spree - Town Meeting Song.wav

Peak level 99.8 %
Track quality 100.0 %
Test CRC 427A9F05
Copy CRC 427A9F05
Track not present in AccurateRip database
Copy OK

Track 8

Filename C:\\Users\\Devon\\Music\\Soundtracks\\Nightmare Revisited\\(08) The Vitamin String Quartet - Jack and Sally Montage.wav

Peak level 99.7 %
Track quality 100.0 %
Test CRC DBF1BB35
Copy CRC DBF1BB35
Track not present in AccurateRip database
Copy OK

Track 9

Filename C:\\Users\\Devon\\Music\\Soundtracks\\Nightmare Revisited\\(09) Sparklehorse - Jack\'s Obesession.wav

Peak level 79.3 %
Track quality 100.0 %
Test CRC 5BD41360
Copy CRC 5BD41360
Track not present in AccurateRip database
Copy OK

Track 10

Filename C:\\Users\\Devon\\Music\\Soundtracks\\Nightmare Revisited\\(10) KoRn - Kidnap the Sandy Claws.wav

Peak level 97.6 %
Track quality 100.0 %
Test CRC 98F3C365
Copy CRC 98F3C365
Track not present in AccurateRip database
Copy OK

Track 11

Filename C:\\Users\\Devon\\Music\\Soundtracks\\Nightmare Revisited\\(11) Rise Against - Making Christmas.wav

Peak level 96.5 %
Track quality 99.9 %
Test CRC 3341F3EE
Copy CRC 3341F3EE
Track not present in AccurateRip database
Copy OK

Track 12

Filename C:\\Users\\Devon\\Music\\Soundtracks\\Nightmare Revisited\\(12) Yoshida Brothers - Nabbed.wav

Peak level 96.5 %
Track quality 100.0 %
Test CRC 5CEA8100
Copy CRC 5CEA8100
Track not present in AccurateRip database
Copy OK

Track 13

Filename C:\\Users\\Devon\\Music\\Soundtracks\\Nightmare Revisited\\(13) Rodrigo y Gabriela - Oogie Boogie\'s Song.wav

Peak level 96.5 %
Track quality 100.0 %
Test CRC 7A938EE7
Copy CRC 7A938EE7
Track not present in AccurateRip database
Copy OK

Track 14

Filename C:\\Users\\Devon\\Music\\Soundtracks\\Nightmare Revisited\\(14) Amy Lee - Sally\'s Song.wav

Peak level 99.8 %
Track quality 100.0 %
Test CRC 8805B155
Copy CRC 8805B155
Track not present in AccurateRip database
Copy OK

Track 15

Filename C:\\Users\\Devon\\Music\\Soundtracks\\Nightmare Revisited\\(15) Rjd2 - Christmas Eve Montage.wav

Peak level 96.5 %
Track quality 99.9 %
Test CRC 07FDFD82
Copy CRC 07FDFD82
Track not present in AccurateRip database
Copy OK

Track 16

Filename C:\\Users\\Devon\\Music\\Soundtracks\\Nightmare Revisited\\(16) Plain White T\'s - Poor Jack.wav

Peak level 93.2 %
Track quality 100.0 %
Test CRC DF84EDFD
Copy CRC DF84EDFD
Track not present in AccurateRip database
Copy OK

Track 17

Filename C:\\Users\\Devon\\Music\\Soundtracks\\Nightmare Revisited\\(17) Datarock - To the Rescue.wav

Peak level 95.4 %
Track quality 100.0 %
Test CRC 9B0B7951
Copy CRC 9B0B7951
Track not present in AccurateRip database
Copy OK

Track 18

Filename C:\\Users\\Devon\\Music\\Soundtracks\\Nightmare Revisited\\(18) Shiny Toy Guns - Finale - Reprise.wav

Peak level 98.7 %
Track quality 100.0 %
Test CRC DADD1DCF
Copy CRC DADD1DCF
Track not present in AccurateRip database
Copy OK

Track 19

Filename C:\\Users\\Devon\\Music\\Soundtracks\\Nightmare Revisited\\(19) Danny Elfman - Closing.wav

Peak level 97.6 %
Track quality 100.0 %
Test CRC DEEFECCF
Copy CRC DEEFECCF
Track not present in AccurateRip database
Copy OK

Track 20

Filename C:\\Users\\Devon\\Music\\Soundtracks\\Nightmare Revisited\\(20) The Album Leaf - End Title.wav

Peak level 98.7 %
Track quality 100.0 %
Test CRC 80D0E4C5
Copy CRC 80D0E4C5
Track not present in AccurateRip database
Copy OK


None of the tracks are present in the AccurateRip database

No errors occurred

End of status report

related torrents

Torrent name

health leech seeds Size

Nightmare Revisited

2 5 67.30 MB 0

Nightmare Revisited

0 8 185.00 MB 0
 

comments (0)

Main Menu