Rock

UFO Lights Out (1977) (Eac Flac Lossless)[colombo bt org]

  • Download 5x Faster
  • Download torrent
  • Direct Download
  • Rate this torrent +  |  -
UFO Lights Out (1977) (Eac Flac Lossless)[colombo bt org]

Anonymous and Free Direct Download 300GB+


Torrent info

Name:UFO Lights Out (1977) (Eac Flac Lossless)[colombo bt org]

Total Size: 250.86 MB

Magnet: Magnet Link

Seeds: 0

Leechers: 0

Stream: Watch Online @ Movie4u

Last Updated: 2016-10-21 23:31:34 (Update Now)

Torrent added: 2009-08-30 10:03:32



VPN For Torrents

Torrent Files List


01 Too Hot To Handle.flac (Size: 250.86 MB) (Files: 17)

 01 Too Hot To Handle.flac

25.34 MB

 02 Just Another Suicide.flac

35.36 MB

 03 Try Me.flac

26.09 MB

 04 Lights Out.flac

33.12 MB

 05 Gettin' Ready.flac

26.48 MB

 06 Alone Again Or.flac

19.45 MB

 07 Electric Phase.flac

30.43 MB

 08 Love To Love.flac

50.28 MB

 Lights Out.cue

1.23 KB

 UFO - Lights Out (1977).ffp

0.54 KB

 UFO - Lights Out cd171.jpg

472.21 KB

 UFO - Lights Out fronte169.jpg

1.48 MB

 UFO - Lights Out interno170.jpg

1.27 MB

 UFO - Lights Out retro interno173.jpg

189.68 KB

 UFO - Lights Out retro172.jpg

923.87 KB

 UFO - Lights Out.log

3.97 KB

 UFO - Lights Out.m3u

0.44 KB
 

tracker

leech seeds
 

Torrent description




"UFO - Lights Out (1977)"








Titolo: UFO "Lights Out" (1977)
Etichetta: Chrysalis Records
Genere: Hard Rock inglese
Formato: Flac Level 8
Copertine: sì
Fonte: CD originale
Edizione - Remaster Classic Rock Series/ Chrysalis 1999


Codice:
Exact Audio Copy V0.99 prebeta 3 from 28. July 2007

EAC extraction logfile from 6. April 2008, 9:44

UFO / Lights Out

Used drive : PLEXTOR DVDR PX-800A Adapter: 1 ID: 0

Read mode : Secure
Utilize accurate stream : Yes
Defeat audio cache : Yes
Make use of C2 pointers : No

Read offset correction : 48
Overread into Lead-In and Lead-Out : No
Fill up missing offset samples with silence : Yes
Delete leading and trailing silent blocks : No
Null samples used in CRC calculations : No
Used interface : Installed external ASPI interface
Gap handling : Appended to previous track

Used output format : Internal WAV Routines
Sample format : 44.100 Hz; 16 Bit; Stereo


TOC of the extracted CD

Track | Start | Length | Start sector | End sector
---------------------------------------------------------
1 | 0:00.00 | 3:37.62 | 0 | 16336
2 | 3:37.62 | 4:58.58 | 16337 | 38744
3 | 8:36.45 | 4:49.40 | 38745 | 60459
4 | 13:26.10 | 4:35.17 | 60460 | 81101
5 | 18:01.27 | 3:46.38 | 81102 | 98089
6 | 21:47.65 | 3:00.47 | 98090 | 111636
7 | 24:48.37 | 4:17.18 | 111637 | 130929
8 | 29:05.55 | 7:38.02 | 130930 | 165281


Track 1

Filename C:\Documents and Settings\Stefano\Desktop\UFO - Lights Out (1977)\01 Too Hot To Handle.wav

Pre-gap length 0:00:02.00

Peak level 94.1 %
Track quality 99.9 %
Test CRC 77E28AD8
Copy CRC 77E28AD8
Accurately ripped (confidence 5) [EA04DA2E]
Copy OK

Track 2

Filename C:\Documents and Settings\Stefano\Desktop\UFO - Lights Out (1977)\02 Just Another Suicide.wav

Pre-gap length 0:00:01.45

Peak level 92.1 %
Track quality 100.0 %
Test CRC ACA33DC7
Copy CRC ACA33DC7
Accurately ripped (confidence 5) [A6776B6B]
Copy OK

Track 3

Filename C:\Documents and Settings\Stefano\Desktop\UFO - Lights Out (1977)\03 Try Me.wav

Pre-gap length 0:00:02.03

Peak level 89.8 %
Track quality 99.9 %
Test CRC A3F2ED17
Copy CRC A3F2ED17
Accurately ripped (confidence 5) [DD2D7C5D]
Copy OK

Track 4

Filename C:\Documents and Settings\Stefano\Desktop\UFO - Lights Out (1977)\04 Lights Out.wav

Pre-gap length 0:00:03.18

Peak level 96.9 %
Track quality 100.0 %
Test CRC 4B605792
Copy CRC 4B605792
Accurately ripped (confidence 5) [80F756D5]
Copy OK

Track 5

Filename C:\Documents and Settings\Stefano\Desktop\UFO - Lights Out (1977)\05 Gettin' Ready.wav

Pre-gap length 0:00:05.57

Peak level 91.9 %
Track quality 100.0 %
Test CRC 4695686E
Copy CRC 4695686E
Accurately ripped (confidence 5) [5CC9DA42]
Copy OK

Track 6

Filename C:\Documents and Settings\Stefano\Desktop\UFO - Lights Out (1977)\06 Alone Again Or.wav

Pre-gap length 0:00:01.58

Peak level 93.8 %
Track quality 99.9 %
Test CRC 07510177
Copy CRC 07510177
Accurately ripped (confidence 5) [17BA1393]
Copy OK

Track 7

Filename C:\Documents and Settings\Stefano\Desktop\UFO - Lights Out (1977)\07 Electric Phase.wav

Pre-gap length 0:00:01.40

Peak level 96.9 %
Track quality 100.0 %
Test CRC E596E7E6
Copy CRC E596E7E6
Accurately ripped (confidence 5) [530B5810]
Copy OK

Track 8

Filename C:\Documents and Settings\Stefano\Desktop\UFO - Lights Out (1977)\08 Love To Love.wav

Peak level 98.0 %
Track quality 100.0 %
Test CRC 8BB9A9BC
Copy CRC 8BB9A9BC
Accurately ripped (confidence 5) [1F901897]
Copy OK


All tracks accurately ripped

No errors occurred

End of status report





01.Too hot to handle
02.Just another suicide
03.Try me
04.Lights out
05.Getting Ready
06.Alone again or
07.Electric phase
08.Love to love






UFO: gruppo rock inglese formatosi nel 1969. Dopo un paio di album (e un live pubblicato solo in Giappone) che potremmo definire space rock con influenze heavy blues, la band si dirige verso l’hard rock più deciso e classico grazie all’avvento in formazione di Michael Schenker, chitarrista tedesco destinato a diventare un guitar hero. Gli album registrati con Schenker sono ormai considerati dei classici: PHENOMEN (74), FORCE IT (75), NO HEAVY PETTING (76), LIGHTS OUT (77), OBSESSIONS (78) e STRANGERS IN THE NIGHT (live 79) infatti sono tutti gran dischi (in particolare Force It, Lights Out e Strangers in the night).

LIGHTS OUT è l’album da studio che meglio rappresenta la band, il disco col quale gli UFO iniziano a fare sul serio nel mercato americano: hard rock (TOO HOT TO HANDLE, ELECTRIC PHASE), ballate (TRY ME), curiosità acustiche (ALONE AGAIN OR dei LOVE) e rock (GETTING READY, LOVE TO LOVE) si mescolano a dovere creando una sequenza di canzoni davvero formidabile. E’ comunque il pezzo LIGHTS OUT (dedicato ai black out che imperversavano a Londra in quel periodo) che brilla maggiormente: un lunga e dura cavalcata elettrica figlia di ACHILLES LAST STAND dei Led Zeppelin.

Con LIGHTS OUT gli Ufo raggiungono il loro punto più alto, bissato solo un paio d’anni più tardi con il live STRANGERS IN THE NIGHT.
I tre decenni successivi passano tra album tutt’altro che memorabili, nuovi membri (PAUL CHAPMAN alla chitarra e JASON BONHAM alla batteria tra gli altri) e riunioni e conseguenti scioglimenti con lo stesso Schenker. Questi “oggetti volanti non identificati”sembrano aver trovato un po’ di pace in questi ultimissimi anni dopo aver rinunciato definitivamente a Schenker ed essersi affidati al chitarrista Vinnie Moore. Tour e nuovi album si materializzano con costanza, ma come succede un po’ per tutti, è chiaro che per ritrovare la qualità dei tempi d’oro occorre guardarsi indietro, ai tempi di LIGHTS OUT appunto.

related torrents

Torrent name

health leech seeds Size
 


comments (0)

Main Menu