Rock

Rush Moving Pictures [FLAC EAC booklet][

  • Download 5x Faster
  • Download torrent
  • Direct Download
  • Rate this torrent +  |  -
Rush Moving Pictures [FLAC EAC booklet][

Download FREE And Anonymously


Torrent info

Name:Rush Moving Pictures [FLAC EAC booklet][

Total Size: 269.57 MB

Magnet: Magnet Link

Seeds: 1

Leechers: 3

Stream: Watch Full Movie @ Movie4u

Last Updated: 2010-07-17 23:46:06 (Update Now)

Torrent added: 2009-08-30 09:07:45



VPN For Torrents

Torrent Files List


Rush - Moving Pictures.cue (Size: 269.57 MB) (Files: 13)

 Rush - Moving Pictures.cue

0.87 KB

 Rush - Moving Pictures.flac

253.05 MB

 artwork

  back.jpeg

1.54 MB

  booklet_1.jpeg

1.88 MB

  booklet_2.jpeg

1.85 MB

  booklet_3.jpeg

1.70 MB

  booklet_4.jpeg

1.68 MB

  booklet_back.jpeg

1.97 MB

  booklet_front.jpeg

1.87 MB

  cd.jpeg

1.39 MB

  cd_base.jpeg

2.63 MB

 checksums.md5

0.00 KB

 eac.log

2.32 KB
 

Announce URL: http://tracker.tntvillage.scambioetico.org:2710/announce

Torrent description

Exact Audio Copy V0.99 prebeta 4 from 23. January 2008



EAC extraction logfile from 25. September 2008, 10:48



Rush / Moving Pictures



Used drive : MATSHITADVD-RAM UJ-850S Adapter: 2 ID: 1



Read mode : Secure

Utilize accurate stream : Yes

Defeat audio cache : No

Make use of C2 pointers : No



Read offset correction : 102

Overread into Lead-In and Lead-Out : No

Fill up missing offset samples with silence : Yes

Delete leading and trailing silent blocks : No

Null samples used in CRC calculations : No

Used interface : Native Win32 interface for Win NT & 2000



Used output format : User Defined Encoder

Selected bitrate : 768 kBit/s

Quality : High

Add ID3 tag : No

Command line compressor : C:\Programmi\EAC\FLAC\FLAC.EXE

Additional command line options : -T "artist=%a" -T "title=%t" -T "album=%g" -T "date=%y" -T "tracknumber=%n" -T "genre=%m" -5 %s





TOC of the extracted CD



Track | Start | Length | Start sector | End sector

---------------------------------------------------------

1 | 0:00.00 | 4:33.67 | 0 | 20541

2 | 4:33.67 | 6:10.15 | 20542 | 48306

3 | 10:44.07 | 4:26.05 | 48307 | 68261

4 | 15:10.12 | 4:19.50 | 68262 | 87736

5 | 19:29.62 | 11:01.13 | 87737 | 137324

6 | 30:31.00 | 4:45.40 | 137325 | 158739

7 | 35:16.40 | 4:46.27 | 158740 | 180216





Range status and errors



Selected range



Filename Y:\extracted\EAC\Rush-Moving_Picture\unico\Rush - Moving Pictures.wav



Peak level 99.3 %

Range quality 100.0 %

Copy CRC 4A37E082

Copy OK



No errors occurred





AccurateRip summary



Track 1 accurately ripped (confidence 9) [6F128EBB]

Track 2 accurately ripped (confidence 9) [EDC546A8]

Track 3 accurately ripped (confidence 9) [6433AD87]

Track 4 accurately ripped (confidence 9) [66A38FF2]

Track 5 accurately ripped (confidence 9) [17E3618A]

Track 6 accurately ripped (confidence 9) [6C05C1C2]

Track 7 accurately ripped (confidence 9) [9347FA81]



All tracks accurately ripped



End of status report

related torrents

Torrent name

health leech seeds Size
 


comments (0)

Main Menu

 

script data-cfasync="false" src="//d2ghscazvn398x.cloudfront.net/?cshgd=690275">