Soundtracks

Ennio Morricone Per Un Pugno Di Dollari[A Fistful of Dollar]Flac+Cue[remasted 2006]

  • Download 5x Faster
  • Download torrent
  • Direct Download
  • Rate this torrent +  |  -

Torrent info

Name:Ennio Morricone Per Un Pugno Di Dollari[A Fistful of Dollar]Flac+Cue[remasted 2006]

Total Size: 159.06 MB

Magnet: Magnet Link

Seeds: 0

Leechers: 0

Stream: Watch Online @ Movie4u

Last Updated: 2013-08-10 15:45:54 (Update Now)

Torrent added: 2009-08-30 09:04:27



VPN For Torrents

Torrent Files List


Cover (Size: 159.06 MB) (Files: 12)

 Cover

  Booklet Inner 1.jpg

1.45 MB

  Booklet Inner 2.jpg

1.52 MB

  Booklet Inner 3.jpg

1.79 MB

  Booklet Inner 4.jpg

1.69 MB

  Booklet Inner 5.jpg

1.34 MB

  Booklet Outer.jpg

1.51 MB

  CD.jpg

698.03 KB

  Digibox Inner.jpg

693.37 KB

  Digibox Outer.jpg

1.58 MB

 Ennio Morricone - Per Un Pugno di Dollari.cue

2.25 KB

 Ennio Morricone - Per Un Pugno di Dollari.flac

146.82 MB

 Per Un Pugno di Dollari.log

3.26 KB
 

Announce URL:

Torrent description

Titolo: Per Pugno Di Dollari
Anno: 2006 [Remaster]
Genere: Colonne Sonore/western
[b]Fonte: Audio cd
[b]Formato :Flac
------------------------------------------------------------------------------------------------------------------------
:::->Tracklist<-:::

01. Titoli 2:58 **
02. Quasi morto 1:40 **
03. Musica sospesa 1:02 *
04. Square dance 1:36 **
05. Ramon 1:05 *
06. Consuelo Baxter 1:18 *
07. Doppi giochi 1:41 *
08. Per un pugno di dollari (#1) 1:26 *
09. Scambio di prigionieri 0:55 *
10. Cavalcata 3:29 *
11. L'inseguimento 2:25 **
12. Tortura 9:31 *
13. Alla ricerca dell'evaso 1:22 *
14. Senza pietà 2:08 **
15. La reazione 2:36 **
16. Per un pugno di dollari (#2) 1:49 **
17. Per un pugno di dollari (Finale) 1:09 *

[CODE]

Exact Audio Copy V0.99 prebeta 3 from 28. July 2007

EAC extraction logfile from 18. April 2008, 21:35

Ennio Morricone / Per Un Pugno di Dollari

Used drive : _NEC DVD_RW ND-3550A Adapter: 5 ID: 0

Read mode : Secure
Utilize accurate stream : Yes
Defeat audio cache : Yes
Make use of C2 pointers : No

Read offset correction : 48
Overread into Lead-In and Lead-Out : No
Fill up missing offset samples with silence : Yes
Delete leading and trailing silent blocks : No
Null samples used in CRC calculations : No
Used interface : Installed external ASPI interface

Used output format : User Defined Encoder
Selected bitrate : 768 kBit/s
Quality : High
Add ID3 tag : No
Command line compressor : C:\Programmi\Exact Audio Copy\FLAC\FLAC.EXE
Additional command line options : -6 -V -T "ARTIST=%a" -T "TITLE=%t" -T "ALBUM=%g" -T "DATE=%y" -T "TRACKNUMBER=%n" -T "GENRE=%m" -T "COMMENT=%e" %s -o %d


TOC of the extracted CD

Track | Start | Length | Start sector | End sector
---------------------------------------------------------
1 | 0:00.00 | 2:58.13 | 0 | 13362
2 | 2:58.13 | 1:41.66 | 13363 | 21003
3 | 4:40.04 | 1:01.71 | 21004 | 25649
4 | 5:42.00 | 1:35.54 | 25650 | 32828
5 | 7:17.54 | 1:04.46 | 32829 | 37674
6 | 8:22.25 | 1:17.74 | 37675 | 43523
7 | 9:40.24 | 1:41.36 | 43524 | 51134
8 | 11:21.60 | 1:25.49 | 51135 | 57558
9 | 12:47.34 | 0:54.52 | 57559 | 61660
10 | 13:42.11 | 3:28.55 | 61661 | 77315
11 | 17:10.66 | 2:25.21 | 77316 | 88211
12 | 19:36.12 | 9:31.32 | 88212 | 131068
13 | 29:07.44 | 1:22.00 | 131069 | 137218
14 | 30:29.44 | 2:08.15 | 137219 | 146833
15 | 32:37.59 | 2:36.17 | 146834 | 158550
16 | 35:14.01 | 1:49.30 | 158551 | 166755
17 | 37:03.31 | 1:09.11 | 166756 | 171941


Range status and errors

Selected range

Filename D:\Documents and Settings\salvo.SN116508160310\Documenti\Ennio Morricone - Per Un Pugno di Dollari.wav

Peak level 99.5 %
Range quality 99.9 %
Test CRC 378F8149
Copy CRC 378F8149
Copy OK

No errors occurred


AccurateRip summary

Track 1 not present in database
Track 2 not present in database
Track 3 not present in database
Track 4 not present in database
Track 5 not present in database
Track 6 not present in database
Track 7 not present in database
Track 8 not present in database
Track 9 not present in database
Track 10 not present in database
Track 11 not present in database
Track 12 not present in database
Track 13 not present in database
Track 14 not present in database
Track 15 not present in database
Track 16 not present in database
Track 17 not present in database

None of the tracks are present in the AccurateRip database

End of status report






[/CODE]

related torrents

Torrent name

health leech seeds Size
 


comments (0)

Main Menu