Soundtracks

Blade Runner Esper MR3 4 Disc (FLAC)

  • Download 5x Faster
  • Download torrent
  • Direct Download
  • Rate this torrent +  |  -
Blade Runner Esper MR3 4 Disc (FLAC)

Free and Direct Download with Usenet 300GB+ free


Torrent info

Name:Blade Runner Esper MR3 4 Disc (FLAC)

Total Size: 1.27 GB

Magnet: Magnet Link

Seeds: 0

Leechers: 0

Stream: Watch Online @ Movie4u

Last Updated: 0000-00-00 00:00:00 (Update Now)

Torrent added: 2009-08-30 08:10:43




Torrent Files List


CD1 - The Score Part 1 (Size: 1.27 GB) (Files: 29)

 CD1 - The Score Part 1

  blade runner MR3 CD1.cue

1.45 KB

  blade runner MR3 CD1.flac

260.26 MB

  blade runner MR3 CD1.log

2.22 KB

  Folder.jpg

142.85 KB

 CD2 - The Score Part 2

  blade runner MR3 CD2.cue

2.33 KB

  blade runner MR3 CD2.flac

298.02 MB

  blade runner MR3 CD2.log

2.46 KB

  Folder.jpg

116.08 KB

 CD3 - Los Angeles November 2019

  Standalone LA 2019 Alternate Cover

   Folder.jpg

121.21 KB

   info.txt

0.21 KB

   la2019back.png

3.15 MB

   la2019backinside.png

4.06 MB

   la2019disc.png

2.05 MB

   la2019insert.png

2.73 MB

  Blade Runner Soundtrack - Los Angeles November 2019.cue

1.29 KB

  Blade Runner Soundtrack - Los Angeles November 2019.flac

363.00 MB

  Folder.jpg

140.07 KB

 CD4 - Bonus Material

  blade runner MR3 bonusCD.cue

3.44 KB

  blade runner MR3 bonusCD.flac

359.00 MB

  blade runner MR3 bonusCD.log

2.79 KB

  Folder.jpg

129.48 KB

 cover and insert images

  Original Scans

   Vangelis - Blade Runner (definitive) - back.jpg

434.57 KB

   Vangelis - Blade Runner (definitive) - front.jpg

622.74 KB

   Vangelis - Blade Runner (definitive) - inside1.jpg

724.12 KB

   Vangelis - Blade Runner (definitive) - inside2.jpg

875.16 KB

  Reworked Recreations of Originals

   Blade Runner Esper MR3 (recreated) - back insert.jpg

448.67 KB

   Blade Runner Esper MR3 (recreated) - front insert.jpg

501.60 KB

  Folder.jpg

73.82 KB

 Folder.jpg

73.82 KB
 

Announce URL:

Torrent description

The big one!
The 4 disc Blade Runner bootleg soundtrack.
br2019.com

REM DISCID CF0D0F0F
REM COMMENT ExactAudioCopy v0.99pb1
PERFORMER "Vangelis"
TITLE "Blade Runner - Esper Definitive Collectors Edition - CD 1 - The Score Part 1 ..."
FILE "blade runner MR3 CD1.flac" WAVE
TRACK 01 AUDIO
TITLE "Prologue & Main Titles"
INDEX 01 00:00:00
TRACK 02 AUDIO
TITLE "Leon's Voight Kampff Test \ Sushi Bar"
INDEX 01 03:53:65
TRACK 03 AUDIO
TITLE "Damask Rose"
INDEX 01 05:30:00
TRACK 04 AUDIO
TITLE "Spinner Ascent (Los Angeles November 2019)"
INDEX 01 07:30:10
TRACK 05 AUDIO
TITLE "Blush Response"
INDEX 01 09:00:46
TRACK 06 AUDIO
TITLE "Wait For Me"
INDEX 01 14:46:10
TRACK 07 AUDIO
TITLE "Deckard Meets Rachel \ Rachel's Voight Kampff Test"
INDEX 01 20:04:00
TRACK 08 AUDIO
TITLE "Rachel's Song"
INDEX 01 21:40:49
TRACK 09 AUDIO
TITLE "Tales of the Future (On The Trail of Nexus 6)"
INDEX 01 26:01:00
TRACK 10 AUDIO
TITLE "Gail Laughton \ Bicycle Riders (Harps of the Ancient Temples edit)"
REM DATE
INDEX 01 30:54:30
TRACK 11 AUDIO
TITLE "Chew's Eye Lab"
INDEX 01 33:04:10
TRACK 12 AUDIO
TITLE "Memories of Green"
INDEX 01 34:24:49
TRACK 13 AUDIO
TITLE "Blade Runner Blues (Full length version)"
INDEX 01 39:50:60
TRACK 14 AUDIO
TITLE "Pris Meets J.F. Sebastian"
INDEX 01 49:55:10
TRACK 15 AUDIO
TITLE "One More Kiss, Dear (Edit)"
INDEX 01 51:44:60

REM DISCID F30E3314
REM COMMENT "ExactAudioCopy v0.99pb1"
PERFORMER "Vangelis"
TITLE "Blade Runner - Esper Definitive Collectors Edition - CD 2 - The Score Part 2 ..."
FILE "blade runner MR3 CD2.flac" WAVE
TRACK 01 AUDIO
TITLE "Deckard's Dream (Extended version)"
PERFORMER "Vangelis"
INDEX 01 00:00:00
TRACK 02 AUDIO
TITLE "Thinking of Rachel (Love Theme Different Take)"
PERFORMER "Vangelis"
INDEX 01 01:18:00
TRACK 03 AUDIO
TITLE "Esper Analysis"
PERFORMER "Vangelis"
INDEX 01 02:42:25
TRACK 04 AUDIO
TITLE "Animoid Row Part I (Tales of the Future reprise)"
PERFORMER "Vangelis"
INDEX 01 05:03:65
TRACK 05 AUDIO
TITLE "Animoid Row Part II"
PERFORMER "Vangelis"
INDEX 01 06:39:50
TRACK 06 AUDIO
TITLE "Taffey Lewis' Night Club"
PERFORMER "Vangelis"
INDEX 01 07:41:30
TRACK 07 AUDIO
TITLE "Salome's Dance"
PERFORMER "Vangelis"
INDEX 01 09:41:69
TRACK 08 AUDIO
TITLE "Zhora's Retirement (Blade Runner Blues reprise)"
PERFORMER "Vangelis"
INDEX 01 11:05:02
TRACK 09 AUDIO
TITLE "I Am The Business"
PERFORMER "Vangelis"
INDEX 01 12:46:25
TRACK 10 AUDIO
TITLE "Love Theme (Extended version)"
PERFORMER "Vangelis"
INDEX 01 14:15:25
TRACK 11 AUDIO
TITLE "I Dreamt Music (Alternative Love Theme)"
PERFORMER "Vangelis"
INDEX 01 20:10:50
TRACK 12 AUDIO
TITLE "Morning at the Bradbury"
PERFORMER "Vangelis"
INDEX 01 24:34:63
TRACK 13 AUDIO
TITLE "The Prodigal Son Brings Death (Prelude)"
PERFORMER "Vangelis"
INDEX 01 27:59:50
TRACK 14 AUDIO
TITLE "The Prodigal Son Brings Death"
PERFORMER "Vangelis"
INDEX 01 29:59:70
TRACK 15 AUDIO
TITLE "Deckard Enters the Bradbury"
PERFORMER "Vangelis"
INDEX 01 33:41:50
TRACK 16 AUDIO
TITLE "Dangerous Days"
PERFORMER "Vangelis"
INDEX 01 36:42:42
TRACK 17 AUDIO
TITLE "Wounded Animals"
PERFORMER "Vangelis"
INDEX 01 37:40:30
TRACK 18 AUDIO
TITLE "Tears In Rain (Time To Die edit)"
PERFORMER "Vangelis"
INDEX 01 48:36:64
TRACK 19 AUDIO
TITLE "Rachel Sleeps"
PERFORMER "Vangelis"
INDEX 01 51:30:66
TRACK 20 AUDIO
TITLE "End Titles (Full length version)"
PERFORMER "Vangelis"
INDEX 01 53:22:10

PERFORMER "Blade Runner Soundtrack"
TITLE "Los Angeles November 2019"
FILE "Blade Runner Soundtrack - Los Angeles November 2019.flac" WAVE
TRACK 01 AUDIO
TITLE "Movie Outtake / Los Angeles November 2019"
INDEX 01 00:00:00
TRACK 02 AUDIO
TITLE "Frank Klepacki / Third Sector - China Town"
INDEX 01 00:30:22
TRACK 03 AUDIO
TITLE "Vangelis / Sector - Downtown"
INDEX 01 05:13:23
TRACK 04 AUDIO
TITLE "Movie Outtake / Nineteenth Sector - Police Headquarters"
INDEX 01 09:11:60
TRACK 05 AUDIO
TITLE "Movie Outtake / Twenty-Fifth Sector - Tyrell Corporation"
INDEX 01 11:54:73
TRACK 06 AUDIO
TITLE "Vangelis / Seventh Sector - Apartment 9726"
INDEX 01 18:22:62
TRACK 07 AUDIO
TITLE "Vangelis / Ninth Sector - Urban Blues"
INDEX 01 30:35:39
TRACK 08 AUDIO
TITLE "Frank Klepacki / Fifth Sector - Animoid Row"
INDEX 01 42:37:52
TRACK 09 AUDIO
TITLE "Gail Laughton / Second Sector - DNA Row"
INDEX 01 49:52:52
TRACK 10 AUDIO
TITLE "Vangelis / Seventh Sector - Apartment 9726 (Reprise)"
INDEX 01 54:51:67
TRACK 11 AUDIO
TITLE "Vangelis / Eighth Sector - Nocturnal Rain"
INDEX 01 61:58:13
TRACK 12 AUDIO
TITLE "Vangelis / Tenth Sector - The Bradbury Building"
INDEX 01 65:44:08

REM DISCID 9D12B31B
REM COMMENT "ExactAudioCopy v0.99pb1"
PERFORMER "Vangelis"
TITLE "Blade Runner - Esper Definitive Edition - CD4 - Bonus Material (Promo)"
FILE "blade runner MR3 bonusCD.flac" WAVE
TRACK 01 AUDIO
TITLE "John Williams / Ladd Company logo fanfare"
PERFORMER "Vangelis"
INDEX 01 00:00:00
TRACK 02 AUDIO
TITLE "Prologue & Main Titles (Film version)"
PERFORMER "Vangelis"
INDEX 01 00:22:45
TRACK 03 AUDIO
TITLE "N\A / Leon's Voight Kampff Test (Alternative version)"
PERFORMER "Vangelis"
INDEX 01 04:17:60
TRACK 04 AUDIO
TITLE "Ensemble Nipponia / Ogi No Mato"
PERFORMER "Vangelis"
INDEX 01 05:25:13
TRACK 05 AUDIO
TITLE "Spinner Ascent (Film version)"
PERFORMER "Vangelis"
INDEX 01 07:54:60
TRACK 06 AUDIO
TITLE "Deckard Meets Rachel"
PERFORMER "Vangelis"
INDEX 01 09:36:30
TRACK 07 AUDIO
TITLE "Rachel's Voight Kampff Test (Full length version)"
PERFORMER "Vangelis"
INDEX 01 10:38:20
TRACK 08 AUDIO
TITLE "Gail Laughton / Bicycle Riders (Harps of the Ancient Temples) (Original version)"
PERFORMER "Vangelis"
INDEX 01 12:25:50
TRACK 09 AUDIO
TITLE "Memories of Green (Film version)"
PERFORMER "Vangelis"
INDEX 01 14:34:13
TRACK 10 AUDIO
TITLE "Blade Runner Blues (Film version)"
PERFORMER "Vangelis"
INDEX 01 15:35:13
TRACK 11 AUDIO
TITLE "I Dreamt Music (Alternative edit)"
PERFORMER "Vangelis"
INDEX 01 17:20:13
TRACK 12 AUDIO
TITLE "The Prodigal Son Brings Death (Film version)"
PERFORMER "Vangelis"
INDEX 01 19:59:00
TRACK 13 AUDIO
TITLE "Wounded Animals (Alternative edit)"
PERFORMER "Vangelis"
INDEX 01 24:49:35
TRACK 14 AUDIO
TITLE "Tears In Rain (Alternative version)"
PERFORMER "Vangelis"
INDEX 01 31:47:40
TRACK 15 AUDIO
TITLE "End Titles (Alternative edit)"
PERFORMER "Vangelis"
INDEX 01 34:51:13
TRACK 16 AUDIO
TITLE "Main Titles (Alternative edit)"
PERFORMER "Vangelis"
INDEX 01 40:04:43
TRACK 17 AUDIO
TITLE "Tears In Rain (Film version)"
PERFORMER "Vangelis"
INDEX 01 43:46:15
TRACK 18 AUDIO
TITLE "Tears In Rain (Original version)"
PERFORMER "Vangelis"
INDEX 01 46:23:60
TRACK 19 AUDIO
TITLE "John Williams / Tears In Rain (John Williams' Workprint version)"
PERFORMER "Vangelis"
INDEX 01 49:02:00
TRACK 20 AUDIO
TITLE "N\A / Sound Effect Test"
PERFORMER "Vangelis"
INDEX 01 51:44:30
TRACK 21 AUDIO
TITLE "The Ink Spots \ Jack Lawrence / If I Didn't Care"
PERFORMER "Vangelis"
INDEX 01 52:54:00
TRACK 22 AUDIO
TITLE "One More Kiss, Dear (Original version)"
PERFORMER "Vangelis"
INDEX 01 55:55:50
TRACK 23 AUDIO
TITLE "Robert Randles / Trailer and Alternative Main Titles"
PERFORMER "Vangelis"
INDEX 01 59:52:10
TRACK 24 AUDIO
TITLE "Frank Klepacki / Blade Runner Blues (Westwood Edition version)"
PERFORMER "Vangelis"
INDEX 01 61:28:45
TRACK 25 AUDIO
TITLE "Frank Klepacki / One More Time, Love (Westwood Edition version)"
PERFORMER "Vangelis"
INDEX 01 69:50:32
TRACK 26 AUDIO
TITLE "Frank Klepacki / Love Theme (Westwood Edition version)"
PERFORMER "Vangelis"
INDEX 01 72:45:55
TRACK 27 AUDIO
TITLE "Frank Klepacki / End Titles (Westwood Edition version)"
PERFORMER "Vangelis"
INDEX 01 76:22:35



related torrents

Torrent name

health leech seeds Size
 

comments (0)

Main Menu