Rock

Mountain Climbing! [Eac Flac Cue] (by Rock City)[colombo bt org]

  • Download 5x Faster
  • Download torrent
  • Direct Download
  • Rate this torrent +  |  -
Mountain Climbing! [Eac Flac Cue] (by Rock City)[colombo bt org]

Anonymous and free Direct Download 300GB+


Torrent info

Name:Mountain Climbing! [Eac Flac Cue] (by Rock City)[colombo bt org]

Total Size: 218.73 MB

Magnet: Magnet Link

Seeds: 0

Leechers: 0

Stream: Watch Online @ Movie4u

Last Updated: 2011-09-11 18:33:20 (Update Now)

Torrent added: 2009-08-30 07:11:39



SpyOFF VPN

Torrent Files List


02 Theme From An Imaginary Western.flac (Size: 201.96 MB) (Files: 17)

 02 Theme From An Imaginary Western.flac

32.98 MB

 03 Never In My Life.flac

24.42 MB

 04 Silver Paper.flac

20.59 MB

 05 For Yasgur's Farm.flac

20.46 MB

 06 To My Friend.flac

19.56 MB

 07 The Laird.flac

24.65 MB

 08 Sittin' On A Rainbow.flac

13.83 MB

 09 Boys In The Band.flac

22.24 MB

 10 For Yasgur's Farm (LIVE).flac

22.71 MB

 Climbing!.cue

1.56 KB

 Mountain - Climbing!.ffp

0.69 KB

 Mountain - Climbing!.log

5.14 KB

 Mountain - Climbing!.m3u

0.68 KB

 Mountain_-_Climbing!_-_Back.jpg

117.79 KB

 Mountain_-_Climbing!_-_Front.jpg

61.60 KB

 Mountain_climbing_1993_retail_cd-cd.jpg

114.50 KB

 Mountain_climbing_1993_retail_cd-inlay.jpg

228.99 KB
 

Announce URL:

Torrent description

Mountain   Climbing! [Eac Flac Cue] (by Rock City)[colombo bt org] preview 0

Mountain   Climbing! [Eac Flac Cue] (by Rock City)[colombo bt org] preview 1

[size=24pt][color=blue][font=Verdana]MOUNTAIN[/font][/color][/size]
[size=20pt][color=blue][font=Verdana]CLIMBING![/font][/color][/size]

Mountain   Climbing! [Eac Flac Cue] (by Rock City)[colombo bt org] preview 2

Mountain   Climbing! [Eac Flac Cue] (by Rock City)[colombo bt org] preview 3

Mountain   Climbing! [Eac Flac Cue] (by Rock City)[colombo bt org] preview 4

[font=Verdana]Titolo:[/font] [color=maroon][font=Verdana]Climbing![/font][/color]
[font=Verdana]Anno: [/font] [color=maroon][font=Verdana]1970[/font][/color]
[font=Verdana]Genere:[/font] [color=maroon][font=Verdana]Hard Rock[/font][/color]
[font=Verdana]Edizione:[/font] [color=maroon][font=Verdana]Rimasterizzata[/font][/color]
[font=Verdana]Formato:[/font] [color=maroon][font=Verdana]Flac - Level 8[/font][/color]
[font=Verdana]Fonte:[/font] [color=maroon][font=Verdana]Cd masterizzato dall'originale[/font][/color]
[color=blue][font=Verdana]Covers Incluse nel Torrent[/font][/color]

[code]Exact Audio Copy V0.99 prebeta 3 from 28. July 2007

EAC extraction logfile from 24. March 2008, 7:52

Mountain / Climbing!

Used drive : PIONEER DVD-RW DVR-111D Adapter: 1 ID: 0

Read mode : Secure
Utilize accurate stream : Yes
Defeat audio cache : Yes
Make use of C2 pointers : No

Read offset correction : 48
Overread into Lead-In and Lead-Out : No
Fill up missing offset samples with silence : Yes
Delete leading and trailing silent blocks : No
Null samples used in CRC calculations : Yes
Used interface : Installed external ASPI interface
Gap handling : Appended to previous track

Used output format : Internal WAV Routines
Sample format : 44.100 Hz; 16 Bit; Stereo


TOC of the extracted CD

Track | Start | Length | Start sector | End sector
---------------------------------------------------------
1 | 0:00.00 | 2:31.62 | 0 | 11386
2 | 2:31.62 | 5:07.53 | 11387 | 34464
3 | 7:39.40 | 3:53.00 | 34465 | 51939
4 | 11:32.40 | 3:18.55 | 51940 | 66844
5 | 14:51.20 | 3:23.32 | 66845 | 82101
6 | 18:14.52 | 3:38.18 | 82102 | 98469
7 | 21:52.70 | 4:39.15 | 98470 | 119409
8 | 26:32.10 | 2:22.47 | 119410 | 130106
9 | 28:54.57 | 3:43.10 | 130107 | 146841
10 | 32:37.67 | 4:18.45 | 146842 | 166236


Track 1

Filename C:\Documents and Settings\Saura\Desktop\Mountain - Climbing!\01 Mississippi Queen.wav

Pre-gap length 0:00:02.00

Peak level 99.8 %
Track quality 100.0 %
Test CRC 359E6AD8
Copy CRC 359E6AD8
Cannot be verified as accurate (confidence 4) [C0662F4A], AccurateRip returned [ECEF14E8]
Copy OK

Track 2

Filename C:\Documents and Settings\Saura\Desktop\Mountain - Climbing!\02 Theme From An Imaginary Western.wav

Pre-gap length 0:00:00.04

Peak level 99.8 %
Track quality 100.0 %
Test CRC 4273C56D
Copy CRC 4273C56D
Cannot be verified as accurate (confidence 4) [5F9FC575], AccurateRip returned [EAFA10CC]
Copy OK

Track 3

Filename C:\Documents and Settings\Saura\Desktop\Mountain - Climbing!\03 Never In My Life.wav

Pre-gap length 0:00:00.06

Peak level 99.8 %
Track quality 100.0 %
Test CRC 5C633F6E
Copy CRC 5C633F6E
Cannot be verified as accurate (confidence 4) [8419B6C8], AccurateRip returned [BCCF6CC3]
Copy OK

Track 4

Filename C:\Documents and Settings\Saura\Desktop\Mountain - Climbing!\04 Silver Paper.wav

Pre-gap length 0:00:00.01

Peak level 99.8 %
Track quality 100.0 %
Test CRC 8053EF97
Copy CRC 8053EF97
Cannot be verified as accurate (confidence 4) [2CC13B54], AccurateRip returned [CE9DFF1C]
Copy OK

Track 5

Filename C:\Documents and Settings\Saura\Desktop\Mountain - Climbing!\05 For Yasgur's Farm.wav

Pre-gap length 0:00:00.03

Peak level 99.8 %
Track quality 100.0 %
Test CRC B4843B4D
Copy CRC B4843B4D
Cannot be verified as accurate (confidence 4) [C422B515], AccurateRip returned [91BB393F]
Copy OK

Track 6

Filename C:\Documents and Settings\Saura\Desktop\Mountain - Climbing!\06 To My Friend.wav

Peak level 64.7 %
Track quality 100.0 %
Test CRC 37CAF0C8
Copy CRC 37CAF0C8
Cannot be verified as accurate (confidence 4) [1B035A40], AccurateRip returned [87E9900E]
Copy OK

Track 7

Filename C:\Documents and Settings\Saura\Desktop\Mountain - Climbing!\07 The Laird.wav

Peak level 80.0 %
Track quality 100.0 %
Test CRC A81AA62E
Copy CRC A81AA62E
Cannot be verified as accurate (confidence 4) [BD6840D3], AccurateRip returned [873ED149]
Copy OK

Track 8

Filename C:\Documents and Settings\Saura\Desktop\Mountain - Climbing!\08 Sittin' On A Rainbow.wav

Peak level 99.8 %
Track quality 100.0 %
Test CRC E243B844
Copy CRC E243B844
Cannot be verified as accurate (confidence 4) [92F7DCF9], AccurateRip returned [69590B2F]
Copy OK

Track 9

Filename C:\Documents and Settings\Saura\Desktop\Mountain - Climbing!\09 Boys In The Band.wav

Peak level 99.8 %
Track quality 99.9 %
Test CRC 46102FC4
Copy CRC 46102FC4
Cannot be verified as accurate (confidence 4) [F6460862], AccurateRip returned [045329FE]
Copy OK

Track 10

Filename C:\Documents and Settings\Saura\Desktop\Mountain - Climbing!\10 For Yasgur's Farm (LIVE).wav

Pre-gap length 0:00:00.01

Peak level 99.9 %
Track quality 100.0 %
Test CRC FBF3DC08
Copy CRC FBF3DC08
Cannot be verified as accurate (confidence 4) [3DE11D91], AccurateRip returned [40EB4FF1]
Copy OK


No tracks could be verified as accurate
You may have a different pressing from the one(s) in the database

No errors occurred

End of status report
[/code]

http://www.altmanphoto.com/mountain.sm.jpeg

Mountain   Climbing! [Eac Flac Cue] (by Rock City)[colombo bt org] preview 5

[font=Verdana][color=black]01.[/color] Mississippi Queen
[color=black]02.[/color] Theme From An Imaginary Western
[color=black]03.[/color] Never In My Life
[color=black]04.[/color] Silver Paper
[color=black]05.[/color] For Yasgur's Farm
[color=black]06.[/color] To My Friend
[color=black]07.[/color] The Laird
[color=black]08.[/color] Sittin' On A Rainbow
[color=black]09.[/color] Boys In The Band

[color=navy]Bonus Track[/color]

[color=black]10.[/color] For Yasgur's Farm (live)
[/font]

Mountain   Climbing! [Eac Flac Cue] (by Rock City)[colombo bt org] preview 6

[font=Verdana][size=10pt]Tra i gruppi “storici” dell’hard rock, anche se declinato secondo canoni fortemente blueseggianti, non possiamo non citare i Mountain. Fondati da Felix Pappalardi (già produttore degli storici Cream) in collaborazione con Leslie West (Weinstein), i Mountain colpiscono per la qualità della loro produzione discografica sempre in bilico tra il rock blues e l’hard rock più frizzante e originale. Reputo sbagliato inquadrare lo stile e il sound di questa band come semplice riedizione di quello più famoso dei Cream. Più che altro penso ai Mountain come l’ideale incontro tra l’esperienza musicale del Pappalardi chitarrista (da notare la sua prova nei Greenwitch Movement) e il carisma vocale di West.
“Climbing”, album uscito nel 1970 e qui oggetto di recensione, può essere considerata una delle opere più riuscite e interessanti della produzione discografica di questo gruppo. Ognuna delle nove traccie che compongono l’album può essere considerata un tassello importante che va a costruire un mosaico musicale di pregevole bellezza, a partire dalla energica e accattivante opener, “Mississippi Queen”. Questa song colpisce subito all’orecchio per il drumming vivace e coinvolgente, per le vocals vibranti e di diretto impatto, ma soprattutto per il riffing di grande “presa”. Di sicuro questo pezzo può essere considerato, assieme alla successiva “Theme From An Imaginary Western”, tra meglio rappresentativi della personalità artistica del combo. Proprio la seconda song del platter mostra la band nella miglior forma, lasciando intuire a piene mani il grande talento del duo Pappalardi/West che si lancia nell’esecuzione di una composizione che sembra proprio immaginata come commento musicale ad un western film. Le melodie del pezzo sono particolarmente toccanti, impreziosite soprattutto dalle ispirate vocals di West e da un tappeto tastieristico caldo e suadente. Accattivante la parte solistica, che dona al brano nel suo complesso un irresistibile lirismo. Il combo ritorna a “graffiare” con riffs hard rock nella terza traccia, “Never In My Life”. Il drumming si fa qui più incisivo e il riffing di più diretto impatto permette alle vocals di “colpire l’orecchio” per sfrontatezza e calda espressività. Di buona fattura risultano poi essere gli interventi solistici che aggiungono vibrante vivacità al complesso della track. “Silver Paper” non attenua di certo l’impatto sonoro d’insieme degli strumenti, concentrando però l’attenzione dell’ascoltatore su un riffing più meditato. Convincente risulta essere l’ensemblement di elementi tipicamente hard rock e di altri di più marcata matrice blues. Con “For Yasgur’s Farm” la band culla nuovamente (come nella splendida “Theme For An Imaginary Western”) l’ascoltatore con melodie sognanti ed evocative immagini “filmiche”. Le armonie risaltano, soprattutto nel refrain, toni malinconici e quasi drammatici, e conquistano subito l’orecchio quando lungo le linee portanti del brano si inserce l’assolo che eleva di tono il brano. Menzione particolare va fatta per la strumentale “To My Friend”, strumentale acustico di rara bellezza, dove si nota una grande varietà di influenze stilistiche in perfetta simbiosi armonica. Di sicuro questo brano può essere considerato uno dei momenti più “alti” del platter. La successiva “Laird” sembra approfondire la ricerca musicale precedentemente accennata, trovando il suo punto di forza in fraseggi acustici cupi e in vocals morbide e suadenti. Le soffuse melodie del pezzo sembrano tratteggiare atmosfere oniriche decisamente suggestive. La penultima “Sittin’ On A Rainbow” cambia decisamente atmosfera, concentrando l’attenzione della band lungo un riffing di più diretto impatto dove le ritmiche cadenzate ma comunque efficaci permettono alle chitarre (in perfetta sincronia con il basso) di impostare la song lungo fraseggi di facile assimilazione nell’ossessività del loro ripetersi. Ecco, forse la ripetività del motivo centrale della track rende la song “incompiuta”, lasciando all’ascoltatore la vana speranza di un diverso sviluppo del pezzo. Chiude l’album “Boys In The Band”, brano “corale” dove si possono notare appieno le qualità tecnico strumentali di ogni membro del gruppo, nonché una certa maturità nel congeniare gli arrangiamenti. Toccante è il tema pianistico iniziale che da lo spunto al resto degli strumenti per mettere in piedi un’affresco melodico cupo e maestoso allo stesso tempo. Molto ben costruita è la parte solistica, pregna di lirismo e drammaticità.
Questo disco, in conclusione, può essere considerato una delle migliori opere dei Mountain, forse seconda al famoso “Flowers Of Evil” (album che li consacrò al successo). L’hard rock non può non menzionare tra le band di culto del genere questo meraviglioso gruppo che, con originalità e passione, ha regalato alla storia del rock pagine di indubbio valore artistico.

[color=teal][font=Verdana]Recensione a cura di TrueMetal.it[/font][/color]

[font=Verdana][color=green][size=10pt]Formazione[/size][/color][/font]

[font=Verdana][size=10pt][color=blue]Felix Pappalardi:[/color] [color=black]Bass, Piano, Vocals, Guitar (Rhythm)[/color][/size][/font]
[font=Verdana][size=10pt][color=blue]Leslie West:[/color] [color=black]Guitar, Vocals[/color][/size][/font]
[font=Verdana][size=10pt][color=blue]Steve Knight:[/color] [color=black]Keyboards[/color][/size][/font]
[font=Verdana][size=10pt][color=blue]Corky Laing:[/color] [color=black]Drums, Percussion[/color][/size][/font]

Mountain   Climbing! [Eac Flac Cue] (by Rock City)[colombo bt org] preview 7

related torrents

Torrent name

health leech seeds Size
 


comments (0)

Main Menu