Other

Western von Gestern German DVD Rip DivX

  • Download 5x Faster
  • Download torrent
  • Direct Download
  • Rate this torrent +  |  -
Western von Gestern German DVD Rip DivX

Anonymous and Free Direct Download 300GB+


Torrent info

Name:Western von Gestern German DVD Rip DivX

Total Size: 9.87 GB

Magnet: Magnet Link

Seeds: 0

Leechers: 0

Stream: Watch Online @ Movie4u

Last Updated: 2015-05-30 15:36:15 (Update Now)

Torrent added: 2009-08-30 06:49:29



VPN For Torrents

Torrent Files List


01 Billy The Kid lebt.avi (Size: 9.87 GB) (Files: 36)

 01 Billy The Kid lebt.avi

345.99 MB

 02 Jesse James unter Verdacht.avi

349.03 MB

 03 Ein Cowboy in New York.avi

346.68 MB

 04 Zorro der tollkuehne Caballero.avi

348.10 MB

 05 Fuzzy und das Blutgeld.avi

267.92 MB

 06 Fuzzy und das Tal der Geister.avi

268.62 MB

 07 Fuzzy und das krumme Ding.avi

268.24 MB

 08 Fuzzy und der Ritter vom Drahtesel 1.avi

268.45 MB

 09 Fuzzy und der Ritter vom Drahtesel 2.avi

267.83 MB

 10 Fuzzy und der doppelte Leutnant.avi

268.65 MB

 11 Fuzzy und der grosse Manitou 1.avi

268.02 MB

 11 Fuzzy und der grosse Manitou 2.avi

267.98 MB

 13 Fuzzy und die Christel von der Post 1.avi

267.83 MB

 14 Fuzzy und die Christel von der Post 2.avi

267.95 MB

 15 Fuzzy und die liebestolle Oma 1.avi

267.47 MB

 16 Fuzzy und die liebestolle Oma 2.avi

267.75 MB

 17 John Wayne - Der Koenig vom Pecos 1.avi

268.64 MB

 17 John Wayne - Der Koenig vom Pecos 2.avi

268.10 MB

 19 John Wayne - Der Bandit von Wyoming.avi

268.46 MB

 20 John Wayne - Flammende Grenze.avi

269.23 MB

 21 Zorro reitet wieder 1.avi

216.63 MB

 22 Zorro reitet wieder 2.avi

216.43 MB

 23 Zorro reitet wieder 3.avi

216.86 MB

 24 Zorro reitet wieder 4.avi

217.01 MB

 25 Zorro reitet wieder 5.avi

215.91 MB

 26 Zorro reitet wieder 6.avi

216.53 MB

 27 Fuzzy und die Galgenvoegel.avi

267.66 MB

 28 Fuzzy und die dicken Kartoffeln.avi

268.06 MB

 29 Fuzzy und die scharfen Sachen 1.avi

268.65 MB

 30 Fuzzy und die scharfen Sachen 2.avi

268.71 MB

 31 Zorros Legion reitet wieder (Teil 1).avi

337.94 MB

 32 Zorros Legion reitet wieder (Teil 2).avi

347.58 MB

 33 Zorros Legion reitet wieder (Teil 3).avi

347.29 MB

 34 Zorros Legion reitet wieder (Teil 4).avi

339.56 MB

 35 Zorros Legion reitet wieder (Teil 5).avi

348.26 MB

 36 Zorros Legion reitet wieder (Teil 6).avi

329.69 MB
 

tracker

leech seeds
 

Torrent description


...::::Edelweis-Group Presents::::...

Torrent Name: Western von Gestern

-------------------------

--> Movie/Serie

Sprache: [X] Deutsch [ ] Englisch [ ] siehe Beschreibung

Video: [ ] HDTV [X] DVD [ ] TV/dTV [ ] TS [ ] Cam [ ] Sonstiges
Audio: [ ] AC3 [X] DVD [ ] TV/dTV [ ] LD [ ] Micro [ ] Sonstiges

Genre: TV-Serie/Western


Untertitel: keine

Extras: keine



-------------------------
Beschreibung:
Western von gestern ist eine Kompilation von Western-Kurzfilmen, die
von Mai 1978 bis Juli 1986 im Vorabendprogramm des ZDF lief. Die Reihe
wurde von Joe Hembus und Eydo von Hadeln als Hommage an die Pioniere
des Westernfilms fuer das deutsche Fernsehen adaptiert. Fred Strittmatter
und Quirin Amper jr. schrieben die einpraegsame Musik und Gert Mechoff
war fuer die Redaktion verantwortlich. Insgesamt gab es 155 Sendungen.
Die oftmals 60-minuetigen Filme wurden auf 25 Minuten verkuerzt und
als Mehrteiler gesendet. Gezeigt wurden vor allem B-Film-Raritaeten
und Westernserials aus den 1930er und 1940er Jahren. Highlights waren
unter anderem "Jesse James reitet wieder" mit Clayton Moore, "Die
Abenteuer von Fuzzy Jones" mit Al St. John, "Der singende Pfeil" mit
Ray Corrigan, "Lone Ranger" mit Robert Livingston oder die Zorro-Serials
"Zorro reitet wieder" mit John Carroll bzw. "Zorros Legion reitet
wieder" mit Reed Hadley. Weitere Publikumslieblinge waren die ersten
Filme mit John Wayne sowie Filme mit Roy Rogers (und seinem Pferd
Trigger), Gene Autry, Richard Dix und Clark Gable (u. a. Feindschaft).
Auch unbekannte Darsteller wie Tom Keene, Lash La Rue oder Buster
Crabbe wurden dem deutschen Fernsehpublikum erstmals vorgestellt.
Sowohl der Vorspann als auch der Abspann zeigen eine kurze Szene mit
Westernpionier Justus D. Barnes (mit erhobenen Colt) aus dem Film
Der grosse Eisenbahnraub (Regie: Edwin S. Porter) aus dem Jahre 1903.

Leider ist es mir nicht gelungen alle 155 Episoden aufzutreiben,
aber hier sind schonmal 36 Episoden Viel Spass damit

-------------------------
Technische Details:
General
Format : AVI
Format/Info : Audio Video Interleave
File size : 346 MiB
Duration : 24mn 44s
Overall bit rate : 1955 Kbps
Writing library : AVI OpenDML FlasKMPEG plugin release

Video
Format : MPEG-4 Visual
Format settings, BVOP : Yes
Format settings, QPel : No
Format settings, GMC : No warppoints
Format settings, Matrix : Default
Muxing mode : Packet Bitstream
Codec ID : DX50
Codec ID/Hint : DivX 5
Duration : 24mn 44s
Bit rate : 1758 Kbps
Width : 640 pixels
Height : 464 pixels
Display aspect ratio : 1.379
Frame rate : 25.000 fps
Resolution : 8 bits
Colorimetry : 4:2:0
Scan type : Progressive
Bits/(Pixel*Frame) : 0.237
Stream size : 311 MiB (90)
Writing library : DivX 6.8.0 (UTC 2007-12-04)

Audio
Format : MPEG Audio
Format version : Version 1
Format profile : Layer 3
Codec ID : 55
Codec ID/Hint : MP3
Duration : 24mn 44s
Bit rate mode : Constant
Bit rate : 192 Kbps
Channel(s) : 2 channels
Sampling rate : 48.0 KHz
Resolution : 16 bits
Stream size : 34.0 MiB (10)
Alignment : Aligned on interleaves
Interleave, duration : 200 ms (5.00 video frames)




--------------------------------------------

Note:

Happy leeching und das Seeden nicht vergessen!!

Wuerdigt die Arbeit jedes Uppers mit einen Danke und/oder eines netten Kommentars.

Bin fuer Lob und Kritik stets offen.

--------------------------------------------



NFO File make with ZNFO Maker V6.6
(C)2008 by Edelweis-Group and VX / S4Y Crew

related torrents

Torrent name

health leech seeds Size
 


comments (0)

Main Menu