Rock

MICHAEL SCHENKER GROUP 1° (1980 Remaster 2000)[Eac Flac][colombo bt org]

  • Download 5x Faster
  • Download torrent
  • Direct Download
  • Rate this torrent +  |  -

Torrent info

Name:MICHAEL SCHENKER GROUP 1° (1980 Remaster 2000)[Eac Flac][colombo bt org]

Total Size: 272.29 MB

Magnet: Magnet Link

Seeds: 0

Leechers: 0

Stream: Watch Online @ Movie4u

Last Updated: 2010-10-21 00:56:42 (Update Now)

Torrent added: 2009-08-30 06:47:34



VPN For Torrents

Torrent Files List


01 Armed and Ready.flac (Size: 259.86 MB) (Files: 19)

 01 Armed and Ready.flac

27.95 MB

 02 Cry For the Nations.flac

35.94 MB

 03 Victim of Illusion.flac

33.97 MB

 05 Feels Like A Good Thing.flac

26.56 MB

 06 Into the Arena.flac

30.17 MB

 07 Looking Out From Nowhere.flac

32.34 MB

 08 Tales of Mystery.flac

21.03 MB

 09 Lost Horizons.flac

47.12 MB

 Michael Schenker Group - Michael Schenker Group.log

4.27 KB

 Michael Schenker Group - Michael Schenker Group.m3u

0.74 KB

 Michael Schenker Group.cue

1.67 KB

 MSG - 1°(1980) (Remaster 2000) [Eac Flac).ffp

0.63 KB

 MSG.txt

0.53 KB

 Msg351.jpg

252.30 KB

 Msg352.jpg

1.05 MB

 Msg353.jpg

1.51 MB

 Msg354.jpg

937.49 KB

 Msg355.jpg

181.28 KB

 Msg356.jpg

903.77 KB
 

Announce URL: http://colombo-bt.org:2710/announce

Torrent description

MICHAEL SCHENKER GROUP   1° (1980   Remaster 2000)[Eac Flac][colombo bt org] preview 0

[color=blue][size=18pt]\"MICHAEL SCHENKER GROUP - 1°(1980 - Remaster 2000)[Eac Flac]\"[/size][/color]

MICHAEL SCHENKER GROUP   1° (1980   Remaster 2000)[Eac Flac][colombo bt org] preview 1

[color=blue][font=Verdana]TITOLO: MICHAEL SCHENKER GROUP - 1°
ANNO: 1980
ETICHETTA:Chrysalis Records
GENERE: Hard Rock Europeo
FORMATO: Flac Level 8
COPERTINE: sì (scansioni originali)
FONTE: CD originale
EDIZIONE: Chrysalis Records - Emi Remaster 2000 Classic Rock Series Printed in EU
[/font][/color]

[code]Exact Audio Copy V0.99 prebeta 3 from 28. July 2007

EAC extraction logfile from 1. June 2008, 14:46

Michael Schenker Group / Michael Schenker Group

Used drive : PLEXTOR DVDR PX-800A Adapter: 1 ID: 0

Read mode : Secure
Utilize accurate stream : Yes
Defeat audio cache : Yes
Make use of C2 pointers : No

Read offset correction : 48
Overread into Lead-In and Lead-Out : No
Fill up missing offset samples with silence : Yes
Delete leading and trailing silent blocks : No
Null samples used in CRC calculations : No
Used interface : Installed external ASPI interface
Gap handling : Appended to previous track

Used output format : Internal WAV Routines
Sample format : 44.100 Hz; 16 Bit; Stereo


TOC of the extracted CD

Track | Start | Length | Start sector | End sector
---------------------------------------------------------
1 | 0:00.00 | 4:09.10 | 0 | 18684
2 | 4:09.10 | 5:14.07 | 18685 | 42241
3 | 9:23.17 | 4:45.15 | 42242 | 63631
4 | 14:08.32 | 2:18.20 | 63632 | 74001
5 | 16:26.52 | 3:47.08 | 74002 | 91034
6 | 20:13.60 | 4:15.27 | 91035 | 110186
7 | 24:29.12 | 4:33.13 | 110187 | 130674
8 | 29:02.25 | 3:20.05 | 130675 | 145679
9 | 32:22.30 | 7:07.15 | 145680 | 177719


Track 1

Filename C:\\Documents and Settings\\Stefano\\Desktop\\MSG\\01 Armed and Ready.wav

Pre-gap length 0:00:02.00

Peak level 93.2 %
Track quality 99.7 %
Test CRC 3426493F
Copy CRC 3426493F
Track not present in AccurateRip database
Copy OK

Track 2

Filename C:\\Documents and Settings\\Stefano\\Desktop\\MSG\\02 Cry For the Nations.wav

Pre-gap length 0:00:02.30

Peak level 93.3 %
Track quality 100.0 %
Test CRC DE7A6D10
Copy CRC DE7A6D10
Track not present in AccurateRip database
Copy OK

Track 3

Filename C:\\Documents and Settings\\Stefano\\Desktop\\MSG\\03 Victim of Illusion.wav

Pre-gap length 0:00:04.37

Peak level 98.0 %
Track quality 100.0 %
Test CRC D6ABC823
Copy CRC D6ABC823
Track not present in AccurateRip database
Copy OK

Track 4

Filename C:\\Documents and Settings\\Stefano\\Desktop\\MSG\\04 Bijou Pleasurette.wav

Pre-gap length 0:00:04.17

Peak level 68.0 %
Track quality 100.0 %
Test CRC E7FF885B
Copy CRC E7FF885B
Track not present in AccurateRip database
Copy OK

Track 5

Filename C:\\Documents and Settings\\Stefano\\Desktop\\MSG\\05 Feels Like A Good Thing.wav

Pre-gap length 0:00:01.32

Peak level 95.2 %
Track quality 99.9 %
Test CRC A61DF257
Copy CRC A61DF257
Track not present in AccurateRip database
Copy OK

Track 6

Filename C:\\Documents and Settings\\Stefano\\Desktop\\MSG\\06 Into the Arena.wav

Pre-gap length 0:00:01.63

Peak level 94.3 %
Track quality 99.9 %
Test CRC F870C762
Copy CRC F870C762
Track not present in AccurateRip database
Copy OK

Track 7

Filename C:\\Documents and Settings\\Stefano\\Desktop\\MSG\\07 Looking Out From Nowhere.wav

Pre-gap length 0:00:04.02

Peak level 97.0 %
Track quality 100.0 %
Test CRC 82A1FCB2
Copy CRC 82A1FCB2
Track not present in AccurateRip database
Copy OK

Track 8

Filename C:\\Documents and Settings\\Stefano\\Desktop\\MSG\\08 Tales of Mystery.wav

Pre-gap length 0:00:03.65

Peak level 92.8 %
Track quality 100.0 %
Test CRC BD4EE884
Copy CRC BD4EE884
Track not present in AccurateRip database
Copy OK

Track 9

Filename C:\\Documents and Settings\\Stefano\\Desktop\\MSG\\09 Lost Horizons.wav

Pre-gap length 0:00:02.28

Peak level 94.0 %
Track quality 100.0 %
Test CRC 7293A043
Copy CRC 7293A043
Track not present in AccurateRip database
Copy OK


None of the tracks are present in the AccurateRip database

No errors occurred

End of status report
[/code]

MICHAEL SCHENKER GROUP   1° (1980   Remaster 2000)[Eac Flac][colombo bt org] preview 2

[color=blue]01.armed and ready
02.cry for the nations
03.victim of illusion
04.bijou pleasurette
05.feels like a good thing
06.into the arena
07.looking out from nowhere
08.tales of mystery
09.lost horizons
[/color]

MICHAEL SCHENKER GROUP   1° (1980   Remaster 2000)[Eac Flac][colombo bt org] preview 3

MICHAEL SCHENKER GROUP   1° (1980   Remaster 2000)[Eac Flac][colombo bt org] preview 4

[font=Verdana]
MICHAEL SCHENKER, chitarrista rock tedesco, dal 1973 al 1978 con gli Ufo, band con cui registrò alcuni album ormai storici per quanto riguarda l’hard rock.
Uscito per dissidi interni col cantate PHIL MOGG, inizia a pensare ad una propria band. Nel 1979 nasce così il MICHAEL SCHENKER GROUP, che nel 1980 PUBBLICA il primo omonimo album.
Registrato con l’aiuto di buoni musicisti tra cui COZY POWELL, l’album è un piccolo gioiello di hard rock europeo: ricordo bene che in quegli anni il MSG era all’avanguardia per quanto riguardava il mondo dell\'hard rock (non dimentichiamo che però quelli erano i tempi di punk e new wave).
ARMED AND READY, CRY FOR THE NATION,VICTIM OF ILLUSION e INTO THE ARENA sono diventati classici per il chitarrista tedesco.
Nei due o tre anni successivi Michael continua a pubblicare album interessanti e ad avere un ottimo successo (soprattutto in Inghilterra e in Giappone). In seguito si perde tra comportamenti al limite della follia, droga, reunion con gli Ufo mal riuscite e dischi solisti da dimenticare.
Poco fa ha pubblicato IN THE MIDST OF BEAUTY, album che lo rivede insieme al cantante storico del MSG, Gary Barden, e che sembra essere la rinascita (anche dal punto mentale) del grande Michael Schenker.

(note di nonantolaslim giugno 08)
[/font]

MICHAEL SCHENKER GROUP   1° (1980   Remaster 2000)[Eac Flac][colombo bt org] preview 5

related torrents

Torrent name

health leech seeds Size
 


comments (0)

Main Menu