Ska

Pannonia Allstars Ska Orchestra 2007 The Return Of The Pannonians

  • Download 5x Faster
  • Download torrent
  • Direct Download
  • Rate this torrent +  |  -


Torrent info

Name:Pannonia Allstars Ska Orchestra 2007 The Return Of The Pannonians

Total Size: 1.43 GB

Magnet: Magnet Link

Seeds: 0

Leechers: 0

Stream: Watch Online @ Movie4u

Last Updated: 2015-10-07 13:02:42 (Update Now)

Torrent added: 2009-08-30 06:47:31



VPN For Torrents

Torrent Files List


CDDB (Size: 1.43 GB) (Files: 43)

 CDDB

  misc

   10to10

0.00 KB

  reggae

   10to10

1.04 KB

  Status

   10100112.txt

5.70 KB

  CDDB_Batch.txt

0.00 KB

  CDexGenres.txt

0.02 KB

 MP3

  Pannonia Allstars Ska Orchestra

   The Return Of The Pannonians

    01-The Return.wav

1.47 MB

    02-Joseph.wav

30.16 MB

    03-Wicked Away.wav

26.61 MB

    04-Sahara.wav

53.53 MB

    05-System Connection.wav

43.76 MB

    06-Summertime (feat. Harcsa Veronika & Kiss Erzsi).wav

56.10 MB

    07-Cool It.wav

39.66 MB

    08-Dem Haffi Run.wav

28.14 MB

    09-Break Of Dawn.wav

35.34 MB

    10-A Tenkes Kapitánya.wav

38.03 MB

    11-Babylon Focus.wav

40.25 MB

    12-Dr. Dermot's Choice.wav

53.09 MB

    13-Mo'fyah.wav

43.05 MB

    14-Moses And The Red Sea.wav

49.19 MB

    15-Takeover! (Outro).wav

30.95 MB

    16-Cool Dub (Victor Rice Dub Mix).wav

44.23 MB

    17-Dub System (Victor Rice Dub Mix).wav

39.80 MB

    18-Greed (G Brown Gergely Mix).wav

36.05 MB

  01-The Return.mp3

136.62 KB

  02-Joseph.mp3

3.16 MB

  03-Wicked Away.mp3

3.29 MB

  04-Sahara.mp3

6.75 MB

  05-System Connection.mp3

5.53 MB

  06-Summertime (feat. Harcsa Veronika & Kiss Erzsi).mp3

6.77 MB

  07-Cool It.mp3

5.39 MB

  08-Dem Haffi Run.mp3

3.60 MB

  09-Break Of Dawn.mp3

4.54 MB

  10-A Tenkes Kapitánya.mp3

4.83 MB

  11-Babylon Focus.mp3

4.45 MB

  12-Dr. Dermot's Choice.mp3

6.95 MB

  13-Mo'fyah.mp3

5.64 MB

  14-Moses And The Red Sea.mp3

5.45 MB

  15-Takeover! (Outro).mp3

3.59 MB

  16-Cool Dub (Victor Rice Dub Mix).mp3

5.54 MB

  17-Dub System (Victor Rice Dub Mix).mp3

5.07 MB

  18-Greed (G Brown Gergely Mix).mp3

4.02 MB

 PASO_Image.bin

689.40 MB

 PASO_Image.cue

0.77 KB
 

tracker

leech seeds
 

Torrent description

#FILENAME=10100112
# xmcd CD database file
#
# Track frame offsets:
# 150
# 804
# 14251
# 26116
# 49981
# 69489
# 94500
# 112183
# 124728
# 140483
# 157437
# 175382
# 199049
# 218241
# 240171
# 253967
# 273684
# 291429
#
# Disc length: 4099 seconds
#
# Revision: 0
# Submitted via: ExactAudioCopy v0.95a4
#
DISCID=10100112
DTITLE=Pannonia Allstars Ska Orchestra / The Return Of The Pannonians
DYEAR=2007
DGENRE=Ska
TTITLE0=The Return
TTITLE1=Joseph
TTITLE2=Wicked Away
TTITLE3=Sahara
TTITLE4=System Connection
TTITLE5=Summertime (feat. Harcsa Veronika & Kiss Erzsi)
TTITLE6=Cool It
TTITLE7=Dem Haffi Run
TTITLE8=Break Of Dawn
TTITLE9=A Tenkes Kapit??nya
TTITLE10=Babylon Focus
TTITLE11=Dr. Dermot's Choice
TTITLE12=Mo'fyah
TTITLE13=Moses And The Red Sea
TTITLE14=Takeover! (Outro)
TTITLE15=Cool Dub (Victor Rice Dub Mix)
TTITLE16=Dub System (Victor Rice Dub Mix)
TTITLE17=Greed (G Brown Gergely Mix)
EXTD= YEAR: 2007
EXTT0=
EXTT1=
EXTT2=
EXTT3=
EXTT4=
EXTT5=
EXTT6=
EXTT7=
EXTT8=
EXTT9=
EXTT10=
EXTT11=
EXTT12=
EXTT13=
EXTT14=
EXTT15=
EXTT16=
EXTT17=
PLAYORDER=

related torrents

Torrent name

health leech seeds Size
 


comments (0)

Main Menu