Other

TWO RODE TOGETHER[DVDRIP][ENG] JOCKTHERIPPER&KIDSCORNER

  • Download 5x Faster
  • Download torrent
  • Direct Download
  • Rate this torrent +  |  -
TWO RODE TOGETHER[DVDRIP][ENG] JOCKTHERIPPER&KIDSCORNER

Free and Direct Download with Usenet 300GB+ free


Torrent info

Name:TWO RODE TOGETHER[DVDRIP][ENG] JOCKTHERIPPER&KIDSCORNER

Total Size: 698.64 MB

Magnet: Magnet Link

Seeds: 0

Leechers: 0

Stream: Watch Online @ Movie4u

Last Updated: 0000-00-00 00:00:00 (Update Now)

Torrent added: 2009-08-30 06:47:01




Torrent Files List


674425_DV_L_B.JPG (Size: 698.64 MB) (Files: 5)

 674425_DV_L_B.JPG

43.14 KB

 674425_DV_L_F.JPG

25.56 KB

 Torrent downloaded from Demonoid.com.txt

0.05 KB

 Tracked by moviesb4time.biz.txt

1.35 KB

 two rode together main movie.avi

698.57 MB
 

Announce URL:

Torrent description

The first pairing of legendary Western director John Ford (six-time Oscar-winner whose credits include STAGE COACH, THE SEARCHERS, and THE QUIET MAN) with star Jimmy Stewart, TWO RODE TOGETHER is a taut, suspenseful story of two lawmen who invade Comanche Indian territory to rescue the white captives of the tribe.

As in all of his seven previous Westerns, Jimmy Stewart rode his lucky horse and wore his lucky, sweat-stained Stetson (against the wishes of Ford). But unlike earlier Westerns where the outcome was sure to be a happy one (for the settlers, at least), TWO RODE TOGETHER is a dramatic and unsentimental depiction of hostages confronted by the savagery of "civilised" society.

Stewart stars as a U.S. Marshal assigned to trade guns for hostages with the fearsome Comanche. Cynical and corrupt, the character was a striking departure from Stewart's usual roles as stalwart do-gooder. Paired with Richard Widmark, Stewart locates the hostages but argues against bringing them home, knowing they will be unable to readapt to settler life. But Widmark prevails, and the party's triumphant return results in tragedy.

One of the first popular Westerns to recognise the dignity and value of Indian life, TWO RODE TOGETHER is a stirring action-drama from the undisputed master of the genre.



General
Complete name : C:\Users\joker\Documents\TWO RODE TOGETHER[DVDRIP][ENG]-JOCKTHERIPPER&KIDSCORNER\two rode together main movie.avi
Format : AVI
Format/Info : Audio Video Interleave
File size : 699 MiB
Duration : 1h 44mn
Overall bit rate : 934 Kbps
Writing application : FairUse Wizard - http://fairusewizard.com
Writing library : The best and REALLY easy backup tool

Video
Format : MPEG-4 Visual
Format profile : Streaming [email protected]
Format settings, BVOP : Yes
Format settings, QPel : No
Format settings, GMC : No warppoints
Format settings, Matrix : Default
Muxing mode : Packed bitstream
Codec ID : XVID
Codec ID/Hint : XviD
Duration : 1h 44mn
Bit rate : 796 Kbps
Width : 576 pixels
Height : 304 pixels
Display aspect ratio : 1.895
Frame rate : 25.000 fps
Resolution : 24 bits
Colorimetry : 4:2:0
Scan type : Progressive
Bits/(Pixel*Frame) : 0.182
Stream size : 596 MiB (85%)
Writing library : XviD 1.2.0.dev47 (UTC 2006-11-01)

Audio
Format : MPEG Audio
Format version : Version 1
Format profile : Layer 3
Codec ID : 55
Codec ID/Hint : MP3
Duration : 1h 44mn
Bit rate mode : Constant
Bit rate : 128 Kbps
Minimum bit rate : 128 Kbps
Channel(s) : 2 channels
Sampling rate : 48.0 KHz
Resolution : 16 bits
Stream size : 95.7 MiB (14%)
Alignment : Aligned on interleaves
Interleave, duration : 40 ms (1.00 video frame)
Interleave, preload duration : 504 ms
Writing library : LAME3.97
Encoding settings : CBR

related torrents

Torrent name

health leech seeds Size
 

comments (0)

Main Menu