Rock

Melvins Houdini [FLAC]

  • Download 5x Faster
  • Download torrent
  • Direct Download
  • Rate this torrent +  |  -
Melvins Houdini [FLAC]

Anonymous and Free Direct Download 300GB+


Torrent info

Name:Melvins Houdini [FLAC]

Total Size: 348.37 MB

Magnet: Magnet Link

Seeds: 0

Leechers: 0

Stream: Watch Online @ Movie4u

Last Updated: 2011-01-08 06:01:34 (Update Now)

Torrent added: 2009-08-30 06:40:52



VPN For Torrents

Torrent Files List


01 - Hooch.flac (Size: 331.55 MB) (Files: 15)

 01 - Hooch.flac

19.45 MB

 02 - Night Goat.flac

30.56 MB

 03 - Lizzy.flac

26.95 MB

 04 - Going Blind.flac

31.99 MB

 05 - Honey Bucket.flac

20.68 MB

 06 - Hag Me.flac

47.64 MB

 07 - Set Me Straight.flac

17.08 MB

 08 - Sky Pup.flac

24.93 MB

 09 - Joan of Arc.flac

23.59 MB

 10 - Teet.flac

19.04 MB

 11 - Copache.flac

14.56 MB

 13 - Spread Eagle Beagle.flac

55.06 MB

 Houdini.jpg

14.40 KB

 Melvins - Houdini.log

5.57 KB

 Melvins - Houdini.m3u

0.70 KB
 

Announce URL:

Torrent description

Exact Audio Copy V0.99 prebeta 4 from 23. January 2008

EAC extraction logfile from 4. April 2008, 17:53

Melvins / Houdini

Used drive : _NEC DVD+-RW ND-3650A Adapter: 0 ID: 1

Read mode : Secure
Utilize accurate stream : Yes
Defeat audio cache : No
Make use of C2 pointers : No

Read offset correction : 48
Overread into Lead-In and Lead-Out : No
Fill up missing offset samples with silence : Yes
Delete leading and trailing silent blocks : No
Null samples used in CRC calculations : Yes
Used interface : Native Win32 interface for Win NT & 2000
Gap handling : Not detected, thus appended to previous track

Used output format : User Defined Encoder
Selected bitrate : 768 kBit/s
Quality : High
Add ID3 tag : No
Command line compressor : C:\\Program Files\\FLAC\\flac.exe
Additional command line options : -T \"artist=%a\" -T \"title=%t\" -T \"album=%g\" -T \"date=%y\" -T \"tracknumber=%n\" -T \"genre=%m\" -6 %s


TOC of the extracted CD

Track | Start | Length | Start sector | End sector
---------------------------------------------------------
1 | 0:00.32 | 2:50.58 | 32 | 12839
2 | 2:51.15 | 4:41.05 | 12840 | 33919
3 | 7:32.20 | 4:44.07 | 33920 | 55226
4 | 12:16.27 | 4:32.53 | 55227 | 75679
5 | 16:49.05 | 3:01.37 | 75680 | 89291
6 | 19:50.42 | 7:06.50 | 89292 | 121291
7 | 26:57.17 | 2:25.65 | 121292 | 132231
8 | 29:23.07 | 3:50.35 | 132232 | 149516
9 | 33:13.42 | 3:36.23 | 149517 | 165739
10 | 36:49.65 | 2:51.65 | 165740 | 178629
11 | 39:41.55 | 2:07.25 | 178630 | 188179
12 | 41:49.05 | 2:45.57 | 188180 | 200611
13 | 44:34.62 | 10:13.38 | 200612 | 246624


Track 1

Filename C:\\Documents and Settings\\Jeff\\Desktop\\Melvins\\Houdini\\01 - Hooch.wav

Peak level 97.4 %
Track quality 99.9 %
Test CRC 64BAD704
Copy CRC 64BAD704
Accurately ripped (confidence 2) [1CA3F714]
Copy OK

Track 2

Filename C:\\Documents and Settings\\Jeff\\Desktop\\Melvins\\Houdini\\02 - Night Goat.wav

Peak level 94.2 %
Track quality 100.0 %
Test CRC 9DE36DBA
Copy CRC 9DE36DBA
Accurately ripped (confidence 2) [A23BD9D0]
Copy OK

Track 3

Filename C:\\Documents and Settings\\Jeff\\Desktop\\Melvins\\Houdini\\03 - Lizzy.wav

Peak level 96.0 %
Track quality 100.0 %
Test CRC 26DB66CC
Copy CRC 26DB66CC
Accurately ripped (confidence 2) [86437731]
Copy OK

Track 4

Filename C:\\Documents and Settings\\Jeff\\Desktop\\Melvins\\Houdini\\04 - Going Blind.wav

Peak level 89.4 %
Track quality 100.0 %
Test CRC 0D707899
Copy CRC 0D707899
Accurately ripped (confidence 2) [74A568E6]
Copy OK

Track 5

Filename C:\\Documents and Settings\\Jeff\\Desktop\\Melvins\\Houdini\\05 - Honey Bucket.wav

Peak level 89.2 %
Track quality 100.0 %
Test CRC 291A44C6
Copy CRC 291A44C6
Accurately ripped (confidence 2) [AAA15F2C]
Copy OK

Track 6

Filename C:\\Documents and Settings\\Jeff\\Desktop\\Melvins\\Houdini\\06 - Hag Me.wav

Peak level 94.7 %
Track quality 99.9 %
Test CRC 1C20F2F4
Copy CRC 1C20F2F4
Accurately ripped (confidence 2) [F52BCFE7]
Copy OK

Track 7

Filename C:\\Documents and Settings\\Jeff\\Desktop\\Melvins\\Houdini\\07 - Set Me Straight.wav

Peak level 89.2 %
Track quality 100.0 %
Test CRC 77E4BC8F
Copy CRC 77E4BC8F
Accurately ripped (confidence 2) [00A606CE]
Copy OK

Track 8

Filename C:\\Documents and Settings\\Jeff\\Desktop\\Melvins\\Houdini\\08 - Sky Pup.wav

Peak level 97.6 %
Track quality 99.9 %
Test CRC 7B67E21F
Copy CRC 7B67E21F
Accurately ripped (confidence 2) [4E756854]
Copy OK

Track 9

Filename C:\\Documents and Settings\\Jeff\\Desktop\\Melvins\\Houdini\\09 - Joan of Arc.wav

Peak level 95.0 %
Track quality 100.0 %
Test CRC 66B34245
Copy CRC 66B34245
Accurately ripped (confidence 2) [8EB2B715]
Copy OK

Track 10

Filename C:\\Documents and Settings\\Jeff\\Desktop\\Melvins\\Houdini\\10 - Teet.wav

Peak level 94.5 %
Track quality 100.0 %
Test CRC 0B4138D0
Copy CRC 0B4138D0
Accurately ripped (confidence 2) [BB89E52C]
Copy OK

Track 11

Filename C:\\Documents and Settings\\Jeff\\Desktop\\Melvins\\Houdini\\11 - Copache.wav

Peak level 94.6 %
Track quality 100.0 %
Test CRC 0FA22AC8
Copy CRC 0FA22AC8
Accurately ripped (confidence 2) [E98B9111]
Copy OK

Track 12

Filename C:\\Documents and Settings\\Jeff\\Desktop\\Melvins\\Houdini\\12 - Pearl Bomb.wav

Peak level 94.3 %
Track quality 100.0 %
Test CRC CA7C9503
Copy CRC CA7C9503
Accurately ripped (confidence 2) [E971866E]
Copy OK

Track 13

Filename C:\\Documents and Settings\\Jeff\\Desktop\\Melvins\\Houdini\\13 - Spread Eagle Beagle.wav

Peak level 96.4 %
Track quality 100.0 %
Test CRC BD4C0888
Copy CRC BD4C0888
Accurately ripped (confidence 2) 42D329EC]
Copy OK


12 track(s) accurately ripped

No errors occurred

End of status report

related torrents

Torrent name

health leech seeds Size

Melvins Houdini (1993)

0 0 75.00 MB 0
 


comments (0)

Main Menu