Other

THE GOOD THE BAD & THE UGLY A H 264 RIP BY KIDZCORNER

  • Download 5x Faster
  • Download torrent
  • Direct Download
  • Rate this torrent +  |  -
THE GOOD THE BAD & THE UGLY A H 264 RIP BY KIDZCORNER

Free and Direct Download with Usenet.nl 300GB+ free


Torrent info

Name:THE GOOD THE BAD & THE UGLY A H 264 RIP BY KIDZCORNER

Total Size: 844.30 MB

Magnet: Magnet Link

Seeds: 7

Leechers: 6

Stream: Watch Online @ Movie4u

Last Updated: 2010-12-02 05:04:07 (Update Now)

Torrent added: 2009-08-30 06:32:25





Torrent Files List


307889_DV_L_B.JPG (Size: 844.30 MB) (Files: 5)

 307889_DV_L_B.JPG

34.24 KB

 307889_DV_L_F.JPG

31.52 KB

 GBTU.mp4

844.23 MB

 Torrent downloaded from Demonoid.com.txt

0.05 KB

 Tracked by moviesb4time.biz.txt

1.35 KB
 

Announce URL: http://inferno.demonoid.com:3407/announce

Torrent description

The Good, the Bad and The Ugly, written by Age- Scarpelli, Luciano Vincenzoni and Sergio Leone is the third and last Western in Clint Eastwood's spaghetti trilogy. director Sergio Leone subtitles for the upright puritan Protestant ethos, so familiar in Hollywood westerns, a seedy cynical standpoint towards death and morality, as a team of brutal bandits battle to unearth a fortune buried beneath an unmarked grave. Joining Clint War, filmed to resemble to the French battlefields of World War One, to end in the climatic Dance of death. Arguably the quintessential Italian Western, this 1966 film boasts a fine Ennio Morricoe score featuring a main theme that reached No.1 in the worlds pop charts.


General
Complete name : C:\Users\joker\Documents\THE GOOD-THE BAD-& THE UGLY-A H.264 RIP BY KIDZCORNER\GBTU.mp4
Format : MPEG-4
Format profile : Base Media / Version 2
Codec ID : mp42
File size : 844 MiB
Duration : 2h 36mn
Overall bit rate : 756 Kbps
Encoded date : UTC 2009-02-17 05:02:07
Tagged date : UTC 2009-02-17 11:24:07
Writing application : HandBrake 0.9.3 2008112300

Video
Format : AVC
Format/Info : Advanced Video Codec
Format profile : [email protected]
Format settings, CABAC : Yes
Format settings, ReFrames : 3 frames
Codec ID : avc1
Codec ID/Info : Advanced Video Coding
Duration : 2h 36mn
Bit rate mode : Variable
Bit rate : 642 Kbps
Width : 718 pixels
Height : 436 pixels
Display aspect ratio : 2.35
Frame rate mode : Variable
Frame rate : 25.000 fps
Minimum frame rate : 12.500 fps
Maximum frame rate : 62.338 fps
Resolution : 24 bits
Colorimetry : 4:2:0
Scan type : Progressive
Bits/(Pixel*Frame) : 0.082
Stream size : 713 MiB (84%)
Writing library : x264 core 65
Encoding settings : cabac=1 / ref=2 / deblock=1:-2:-1 / analyse=0x1:0x131 / me=umh / subme=9 / psy_rd=1.0:0.0 / mixed_ref=1 / me_range=16 / chroma_me=1 / trellis=0 / 8x8dct=0 / cqm=0 / deadzone=21,11 / chroma_qp_offset=-2 / threads=3 / nr=0 / decimate=1 / mbaff=0 / bframes=3 / b_pyramid=1 / b_adapt=1 / b_bias=0 / direct=3 / wpredb=1 / keyint=250 / keyint_min=25 / scenecut=40(pre) / rc=abr / bitrate=642 / ratetol=1.0 / qcomp=0.60 / qpmin=10 / qpmax=51 / qpstep=4 / ip_ratio=1.40 / pb_ratio=1.30 / aq=1:1.00
Encoded date : UTC 2009-02-17 05:02:07
Tagged date : UTC 2009-02-17 11:24:07

Audio
Format : AAC
Format/Info : Advanced Audio Codec
Format version : Version 4
Format profile : LC
Format settings, SBR : No
Codec ID : 40
Duration : 2h 36mn
Bit rate mode : Variable
Bit rate : 114 Kbps
Maximum bit rate : 195 Kbps
Channel(s) : 2 channels
Channel positions : L R
Sampling rate : 48.0 KHz
Resolution : 16 bits
Stream size : 127 MiB (15%)
Language : English
Encoded date : UTC 2009-02-17 05:02:07
Tagged date : UTC 2009-02-17 11:24:02

related torrents

Torrent name

health leech seeds Size
 

comments (0)

Main Menu