Rock

MARSHALL TUCKER BAND Searchin' for a rainbow 1976 (Eac Flac)[colombo bt org]

  • Download 5x Faster
  • Download torrent
  • Direct Download
  • Rate this torrent +  |  -

Torrent info

Name:MARSHALL TUCKER BAND Searchin' for a rainbow 1976 (Eac Flac)[colombo bt org]

Total Size: 257.81 MB

Magnet: Magnet Link

Seeds: 0

Leechers: 0

Stream: Watch Online @ Movie4u

Last Updated: 2010-12-09 00:14:36 (Update Now)

Torrent added: 2009-08-30 06:26:57



VPN For Torrents

Torrent Files List


01 Fire on the Mountain.flac (Size: 257.81 MB) (Files: 19)

 01 Fire on the Mountain.flac

27.90 MB

 02 Searchin' for a Rainbow.flac

26.56 MB

 03 Walkin' and Talkin'.flac

16.65 MB

 04 Virginia.flac

33.94 MB

 05 Bob Away My Blues.flac

17.73 MB

 06 Keeps Me From All Wrong.flac

27.92 MB

 07 Bound and Determined.flac

30.57 MB

 08 Can't You See (Live).flac

43.66 MB

 09 It Takes Time (Live Bonus Track).flac

25.47 MB

 Marshall Tucker Band - Searchin' for a Rainbow.log

4.31 KB

 Marshall Tucker Band - Searchin' for a Rainbow.m3u

0.77 KB

 marshall.ffp

0.66 KB

 MTB - cd144.jpg

209.77 KB

 MTB - fronte139.jpg

1.49 MB

 MTB - interno 140.jpg

1.85 MB

 MTB - interno 2141.jpg

1.64 MB

 MTB - retro interno143.jpg

1.05 MB

 MTB - retro142.jpg

1.17 MB

 Searchin' for a Rainbow.cue

1.68 KB
 

Announce URL: http://colombo-bt.org:2710/announce

Torrent description

MARSHALL TUCKER BAND   Searchin' for a rainbow   1976 (Eac Flac)[colombo bt org] preview 0

[color=blue][size=18pt]"MARSHALL TUCKER BAND - Searchin' for a land - 1975"[/size][/color]

MARSHALL TUCKER BAND   Searchin' for a rainbow   1976 (Eac Flac)[colombo bt org] preview 1

MARSHALL TUCKER BAND   Searchin' for a rainbow   1976 (Eac Flac)[colombo bt org] preview 2

[color=blue][font=Verdana]Titolo: MARSHALL TUCKER BAND " Searchin' for a rainbow"
Anno: 1975 (Remaster 2004)
Etichetta: Shout factory / Ramblin' records
Genere: Southern Rock
Formato: Flac Level 8
Cover: sì
Fonte: CD originale
[/font][/color]

[code]Exact Audio Copy V0.99 prebeta 3 from 28. July 2007

EAC extraction logfile from 15. March 2008, 14:47

Marshall Tucker Band / Searchin' for a Rainbow

Used drive : PLEXTOR DVDR PX-800A Adapter: 1 ID: 0

Read mode : Secure
Utilize accurate stream : Yes
Defeat audio cache : Yes
Make use of C2 pointers : No

Read offset correction : 48
Overread into Lead-In and Lead-Out : No
Fill up missing offset samples with silence : Yes
Delete leading and trailing silent blocks : No
Null samples used in CRC calculations : No
Used interface : Installed external ASPI interface
Gap handling : Appended to previous track

Used output format : Internal WAV Routines
Sample format : 44.100 Hz; 16 Bit; Stereo


TOC of the extracted CD

Track | Start | Length | Start sector | End sector
---------------------------------------------------------
1 | 0:00.00 | 3:56.35 | 0 | 17734
2 | 3:56.35 | 3:51.65 | 17735 | 35124
3 | 7:48.25 | 2:30.70 | 35125 | 46444
4 | 10:19.20 | 4:54.30 | 46445 | 68524
5 | 15:13.50 | 2:46.60 | 68525 | 81034
6 | 18:00.35 | 4:16.50 | 81035 | 100284
7 | 22:17.10 | 4:24.27 | 100285 | 120111
8 | 26:41.37 | 6:30.43 | 120112 | 149404
9 | 33:12.05 | 3:43.57 | 149405 | 166186


Track 1

Filename C:\Documents and Settings\Stefano\Desktop\marshall\01 Fire on the Mountain.wav

Pre-gap length 0:00:02.00

Peak level 99.0 %
Track quality 100.0 %
Test CRC 2C603095
Copy CRC 2C603095
Accurately ripped (confidence 2) [49918BF7]
Copy OK

Track 2

Filename C:\Documents and Settings\Stefano\Desktop\marshall\02 Searchin' for a Rainbow.wav

Pre-gap length 0:00:01.18

Peak level 99.0 %
Track quality 100.0 %
Test CRC BC0FBB1E
Copy CRC BC0FBB1E
Accurately ripped (confidence 2) [FD2113BB]
Copy OK

Track 3

Filename C:\Documents and Settings\Stefano\Desktop\marshall\03 Walkin' and Talkin'.wav

Pre-gap length 0:00:02.30

Peak level 100.0 %
Track quality 100.0 %
Test CRC 6F1A770B
Copy CRC 6F1A770B
Accurately ripped (confidence 2) [507631CF]
Copy OK

Track 4

Filename C:\Documents and Settings\Stefano\Desktop\marshall\04 Virginia.wav

Pre-gap length 0:00:01.55

Peak level 99.2 %
Track quality 100.0 %
Test CRC 700CA12E
Copy CRC 700CA12E
Accurately ripped (confidence 2) [9C159302]
Copy OK

Track 5

Filename C:\Documents and Settings\Stefano\Desktop\marshall\05 Bob Away My Blues.wav

Peak level 98.6 %
Track quality 100.0 %
Test CRC 7C875A5D
Copy CRC 7C875A5D
Accurately ripped (confidence 2) [9DEEC2FD]
Copy OK

Track 6

Filename C:\Documents and Settings\Stefano\Desktop\marshall\06 Keeps Me From All Wrong.wav

Pre-gap length 0:00:02.43

Peak level 98.9 %
Track quality 99.9 %
Test CRC 54ED5ACB
Copy CRC 54ED5ACB
Accurately ripped (confidence 2) [755ED42D]
Copy OK

Track 7

Filename C:\Documents and Settings\Stefano\Desktop\marshall\07 Bound and Determined.wav

Pre-gap length 0:00:01.38

Peak level 100.0 %
Track quality 100.0 %
Test CRC 18EE71B9
Copy CRC 18EE71B9
Accurately ripped (confidence 2) [A11D4938]
Copy OK

Track 8

Filename C:\Documents and Settings\Stefano\Desktop\marshall\08 Can't You See (Live).wav

Pre-gap length 0:00:02.62

Peak level 99.3 %
Track quality 100.0 %
Test CRC FB17B017
Copy CRC FB17B017
Accurately ripped (confidence 2) [F390FADE]
Copy OK

Track 9

Filename C:\Documents and Settings\Stefano\Desktop\marshall\09 It Takes Time (Live Bonus Track).wav

Pre-gap length 0:00:04.10

Peak level 99.4 %
Track quality 99.9 %
Test CRC A15DD8C0
Copy CRC A15DD8C0
Accurately ripped (confidence 2) [ABB1DC01]
Copy OK


All tracks accurately ripped

No errors occurred

End of status report
[/code]

MARSHALL TUCKER BAND   Searchin' for a rainbow   1976 (Eac Flac)[colombo bt org] preview 3

[color=blue]01.Fire on the mountain
02.Searchin for a rainbow
03.Walkin' and talkin'
04.Virginia
05.Bob away my blues
06.Keeps me from all wrong
07.Bound and determined
08.Can't you see (live)
09.It takes time (live)[/color]

MARSHALL TUCKER BAND   Searchin' for a rainbow   1976 (Eac Flac)[colombo bt org] preview 4

[font=Verdana]La Marshall Tucker Band è un gruppo americano che (un po’ a fatica) possiamo inserire nel filone southern rock.
Personalmente non sono un gran ammiratore del genere, a parte gli Allman, i Tishamingo e qualcosa dei Lynyrd non mi ci ritrovo nella retorica e nei luoghi comuni del souther rock, tuttavia
riconosco che il genere ha saputo dare al rock anche grandi momenti e uno di questi è senza dubbio SEARCHIN’ FOR A RAINBOW della Marshall Tucker Band.
Rispetto al rock muscoloso tipico dei gruppi southern, quello della Marshall è più lieve e raffinato e almeno per il sottoscritto più interessante. SEARCHIN’ FOR A RAINBOW è uno degli album più riusciti del gruppo, uscì nel 1975 e la versione proposta è quella rimasterizzata uscita per la Shout Factory/Ramblin’ Records nel 2004.
[/font]

related torrents

Torrent name

health leech seeds Size
 


comments (0)

Main Menu