Other

Shadowheart AC3 5,1 DVDRip[Eng]2009

  • Download 5x Faster
  • Download torrent
  • Direct Download
  • Rate this torrent +  |  -
Shadowheart AC3 5,1 DVDRip[Eng]2009

Anonymous and Free Direct Download 300GB+


Torrent info

Name:Shadowheart AC3 5,1 DVDRip[Eng]2009

Total Size: 1.36 GB

Magnet: Magnet Link

Seeds: 3

Leechers: 3

Stream: Watch Online @ Movie4u

Last Updated: 2010-09-22 11:44:05 (Update Now)

Torrent added: 2009-08-30 06:23:24



VPN For Torrents

Torrent Files List


Shadowheart-AC3-5,1-DVDRip[Eng]2009.avi (Size: 1.36 GB) (Files: 3)

 Shadowheart-AC3-5,1-DVDRip[Eng]2009.avi

1.36 GB

 Shadowheart-AC3-5,1-DVDRip[Eng]2009.txt

2.52 KB

 Torrent downloaded from Demonoid.com.txt

0.05 KB
 

Announce URL: http://inferno.demonoid.com:3418/announce

Torrent description

http://www.imdb.com/title/tt1053918/

http://www.shadowheartmovie.com/

User Rating:4.5/10 - 28 votes

Drama,Western

Director:Dean Alioto

Cast:Angus Macfadyen/Justin Ament/Marnie Alton/Tonantzin Carmelo, and others.

Plot:
James Conners comes home to the town of Legend, New Mexico in 1865 to avenge his fathers death against the ruthless Will Tunney. Along the
way he re-captures his long lost love Mary Cooper. With the chance to take Will Tunney he must choose revenge or redemption...

Info:

General
Complete name : Shadowheart-AC3-5,1-DVDRip[Eng]2009.avi
Format : AVI
Format/Info : Audio Video Interleave
File size : 1.36 GiB
Duration : 1h 54mn
Overall bit rate : 1 710 Kbps
Writing application : VirtualDubMod 1.5.4.1 (build 2178/release)
Writing library : VirtualDubMod build 2178/release

Video
Format : MPEG-4 Visual
Format profile : [email protected]
Format settings, BVOP : No
Format settings, QPel : No
Format settings, GMC : No warppoints
Format settings, Matrix : Default
Codec ID : XVID
Codec ID/Hint : XviD
Duration : 1h 54mn
Bit rate : 1 253 Kbps
Width : 624 pixels
Height : 336 pixels
Display aspect ratio : 1.857
Frame rate : 23.976 fps
Resolution : 24 bits
Colorimetry : 4:2:0
Scan type : Progressive
Bits/(Pixel*Frame) : 0.249
Stream size : 1 023 MiB (73%)
Writing library : XviD 1.1.2 (UTC 2006-11-01)

Audio
Format : AC-3
Format/Info : Audio Coding 3
Codec ID : 2000
Duration : 1h 54mn
Bit rate mode : Constant
Bit rate : 448 Kbps
Channel(s) : 6 channels
Channel positions : Front: L C R, Surround: L R, LFE
Sampling rate : 48.0 KHz
Stream size : 366 MiB (26%)
Alignment : Split accross interleaves
Interleave, duration : 42 ms (1.00 video frame)
Interleave, preload duration : 500 ms

Enjoy.....

related torrents

Torrent name

health leech seeds Size
 


comments (0)

Main Menu