Other

JOHN WAYNE THE [email protected] H 264 RIP[ENG]

  • Download 5x Faster
  • Download torrent
  • Direct Download
  • Rate this torrent +  |  -

Torrent info

Name:JOHN WAYNE THE [email protected] H 264 RIP[ENG]

Total Size: 903.11 MB

Magnet: Magnet Link

Seeds: 3

Leechers: 3

Stream: Watch Online @ Movie4u

Last Updated: 2011-06-19 10:55:09 (Update Now)

Torrent added: 2009-08-30 06:04:22




Torrent Files List


Noname.jpg (Size: 903.11 MB) (Files: 3)

 Noname.jpg

32.10 KB

 tc.mp4

903.08 MB

 Torrent downloaded from Demonoid.com.txt

0.05 KB
 

Announce URL: http://inferno.demonoid.com:3414/announce

Torrent description

John Wayne is a Texas Ranger in this rollicking, good humored western, assigned to bring an arms-running gang to justice. After Wayne arrests one of the criminals, matters are complicated when they wander into an area controlled by the Comancheros- a group of Anglos aiding the warring Comanche Indians. Director Curtiz' last film is based on the novel by Paul I. Wellman.

Format : MPEG-4
Format profile : Base Media / Version 2
Codec ID : mp42
File size : 903 MiB
Duration : 1h 42mn
Overall bit rate : 1 227 Kbps
Encoded date : UTC 2009-06-09 17:08:00
Tagged date : UTC 2009-06-09 21:39:22
Writing application : HandBrake 0.9.3 2008112300

Video
Format : AVC
Format/Info : Advanced Video Codec
Format profile : [email protected]
Format settings, CABAC : Yes
Format settings, ReFrames : 3 frames
Codec ID : avc1
Codec ID/Info : Advanced Video Coding
Duration : 1h 42mn
Bit rate mode : Variable
Bit rate : 1 059 Kbps
Width : 720 pixels
Height : 432 pixels
Display aspect ratio : 2.35
Frame rate mode : Variable
Frame rate : 25.000 fps
Minimum frame rate : 12.500 fps
Maximum frame rate : 25.000 fps
Resolution : 24 bits
Colorimetry : 4:2:0
Scan type : Progressive
Bits/(Pixel*Frame) : 0.136
Stream size : 783 MiB (87%)
Writing library : x264 core 65


Audio
Format : AAC
Format/Info : Advanced Audio Codec
Format version : Version 4
Format profile : LC
Format settings, SBR : No
Codec ID : 40
Duration : 1h 42mn
Bit rate mode : Variable
Bit rate : 160 Kbps
Maximum bit rate : 240 Kbps
Channel(s) : 2 channels
Channel positions : L R
Sampling rate : 48.0 KHz
Resolution : 16 bits
Stream size : 118 MiB (13%)
Language : English
Encoded date : UTC 2009-06-09 17:08:00
Tagged date : UTC 2009-06-09 21:39:12

related torrents

Torrent name

health leech seeds Size
 

comments (0)

Main Menu