Other

High Planis Drifter 1973 DVDrip nutEdave avi

  • Download 5x Faster
  • Download torrent
  • Direct Download
  • Rate this torrent +  |  -
High Planis Drifter 1973 DVDrip nutEdave avi

Anonymous and Free Direct Download 300GB+


Torrent info

Name:High Planis Drifter 1973 DVDrip nutEdave avi

Total Size: 849.39 MB

Magnet: Magnet Link

Seeds: 0

Leechers: 0

Stream: Watch Online @ Movie4u

Last Updated: 2010-08-26 05:01:23 (Update Now)

Torrent added: 2009-08-30 05:57:23



VPN For Torrents

Torrent Files List


High Planis Drifter - 1973 DVDrip nutEdave.avi (Size: 849.39 MB) (Files: 1)

 High Planis Drifter - 1973 DVDrip nutEdave.avi

849.39 MB
 

Announce URL: http://open.tracker.thepiratebay.org/announce

Torrent description

High Plains Drifter is a 1973 Western film with a hint of supernatural horror directed by and starring Clint Eastwood. The film was influenced by the work of Eastwood's two major collaborators Sergio Leone and Don Siegel (Eastwood has noted that the graveyard set featured in the film's finale had tombstones reading "Sergio Leone" and "Don Siegel," intended as a comical "dedication" to both then-living directors).

High Plains Drifter was filmed on location on the shores of Mono Lake, California. The screenplay was written by Ernest Tidyman and an uncredited Dean Riesner, with Tidyman authoring the novelization. Dee Barton provided the film's eerie musical score.
Cast Clint Eastwood ................... The Stranger
Verna Bloom....................... Sarah Belding
Marianna Hill .................... Callie Travers
Mitch Ryan ....................... Dave Drake (as Mitchell Ryan)
Jack Ging ........................ Morgan Allen
Stefan Gierasch .................. Mayor Jason Hobart
Ted Hartley ...................... Lewis Belding
Billy Curtis ..................... Mordecai
William O'Connell ................ Barber
Geoffrey Lewis ................... Stacey Bridges, Outlaw
Scott Walker ..................... Bill Borders, Outlaw
Dan Vadis ........................ Dan Carlin, Outlaw
Anthony James .................... Cole Carlin, Outlaw
Walter Barnes .................... Sheriff Sam Shaw
Paul Brinegar .................... Lutie Naylor
Richard Bull ..................... Asa Goodwin
Robert Donner .................... Preacher
John Hillerman ................... Bootmaker
John Quade ....................... Freight Wagon Operator
Buddy Van Horn.................... Marshal Jim Duncan
General
Complete name : High Planis Drifter - 1973
Format : AVI
Format/Info : Audio Video Interleave
File size : 849 MiB
Duration : 1h 40mn
Overall bit rate : 1 180 Kbps

Video
Format : MPEG-4 Visual
Format profile : Streaming [email protected]
Format settings, BVOP : Yes
Format settings, QPel : No
Format settings, GMC : No warppoints
Format settings, Matrix : Default
Muxing mode : Packed bitstream
Codec ID : XVID
Codec ID/Hint : XviD
Duration : 1h 40mn
Bit rate : 978 Kbps
Width : 1 024 pixels
Height : 582 pixels
Display aspect ratio : 16/9
Frame rate : 25.000 fps
Resolution : 24 bits
Colorimetry : 4:2:0
Scan type : Progressive
Bits/(Pixel*Frame) : 0.066
Stream size : 704 MiB (83%)
Writing library : XviD 1.1.0 (UTC 2005-11-22)

Audio
Format : MPEG Audio
Format version : Version 1
Format profile : Layer 3
Codec ID : 55
Codec ID/Hint : MP3
Duration : 1h 40mn
Bit rate mode : Constant
Bit rate : 192 Kbps
Channel(s) : 2 channels
Sampling rate : 44.1 KHz
Resolution : 16 bits
Video delay : 26ms
Stream size : 138 MiB (16%)
Alignment : Split accross interleaves
Interleave, duration : 40 ms (1.00 video frame)
Title : Audio Stream
Writing library : LAME3.92 Please seed after downloading `

related torrents

Torrent name

health leech seeds Size
 


comments (0)

Main Menu