Other

HANG EM HIGH 1968 A H 264 RIP BY KIDZCORNER

  • Download 5x Faster
  • Download torrent
  • Direct Download
  • Rate this torrent +  |  -
HANG EM HIGH 1968 A H 264 RIP BY KIDZCORNER

Free and Direct Download with Usenet.nl 300GB+ free


Torrent info

Name:HANG EM HIGH 1968 A H 264 RIP BY KIDZCORNER

Total Size: 798.83 MB

Magnet: Magnet Link

Seeds: 0

Leechers: 0

Stream: Watch Online @ Movie4u

Last Updated: 2010-09-29 10:41:17 (Update Now)

Torrent added: 2009-08-30 05:56:33





Torrent Files List


51P0255N43L._SL500_AA240_.jpg (Size: 798.83 MB) (Files: 4)

 51P0255N43L._SL500_AA240_.jpg

14.22 KB

 HEMH.mp4

798.82 MB

 Torrent downloaded from Demonoid.com-1.txt

0.05 KB

 Tracked by moviesb4time.biz.txt

1.35 KB
 

Announce URL: http://inferno.demonoid.com:3407/announce

Torrent description

Oklahoma, 1873. Jed Cooper, mistaken for a rustler and killer, is lynched on the spot by crooked lawman Captain Wilson and a rampaging band of vigilantes. But as Wilson and his gang flee the scene, there's one very important detail they've overlooked: Cooper is still alive! Saved in the nick of time
by a sheriff, Cooper takes on the job of deputy marshal in order to bring hard-handed justice to the Oklahoma territory and to the nine men who "done him wrong"...

General
Complete name : C:\Users\joker\Documents\HANG EM HIGH-1968-A H.264 RIP BY KIDZCORNER\HEMH.mp4
Format : MPEG-4
Format profile : Base Media / Version 2
Codec ID : mp42
File size : 799 MiB
Duration : 1h 50mn
Overall bit rate : 1 014 Kbps
Encoded date : UTC 2009-02-19 01:25:18
Tagged date : UTC 2009-02-19 06:55:52
Writing application : HandBrake 0.9.3 2008112300

Video
Format : AVC
Format/Info : Advanced Video Codec
Format profile : [email protected]
Format settings, CABAC : Yes
Format settings, ReFrames : 3 frames
Codec ID : avc1
Codec ID/Info : Advanced Video Coding
Duration : 1h 50mn
Bit rate mode : Variable
Bit rate : 852 Kbps
Width : 716 pixels
Height : 576 pixels
Display aspect ratio : 16/9
Frame rate mode : Variable
Frame rate : 24.999 fps
Minimum frame rate : 12.500 fps
Maximum frame rate : 36.309 fps
Original frame rate : 25.000 fps
Resolution : 24 bits
Colorimetry : 4:2:0
Scan type : Progressive
Bits/(Pixel*Frame) : 0.083
Stream size : 670 MiB (84%)
Writing library : x264 core 65
Encoding settings : cabac=1 / ref=2 / deblock=1:-2:-1 / analyse=0x1:0x131 / me=umh / subme=9 / psy_rd=1.0:0.0 / mixed_ref=1 / me_range=16 / chroma_me=1 / trellis=0 / 8x8dct=0 / cqm=0 / deadzone=21,11 / chroma_qp_offset=-2 / threads=3 / nr=0 / decimate=1 / mbaff=0 / bframes=3 / b_pyramid=1 / b_adapt=1 / b_bias=0 / direct=3 / wpredb=1 / keyint=250 / keyint_min=25 / scenecut=40(pre) / rc=abr / bitrate=852 / ratetol=1.0 / qcomp=0.60 / qpmin=10 / qpmax=51 / qpstep=4 / ip_ratio=1.40 / pb_ratio=1.30 / aq=1:1.00
Encoded date : UTC 2009-02-19 01:25:18
Tagged date : UTC 2009-02-19 06:55:52

Audio
Format : AAC
Format/Info : Advanced Audio Codec
Format version : Version 4
Format profile : LC
Format settings, SBR : No
Codec ID : 40
Duration : 1h 50mn
Bit rate mode : Variable
Bit rate : 160 Kbps
Maximum bit rate : 212 Kbps
Channel(s) : 2 channels
Channel positions : L R
Sampling rate : 48.0 KHz
Resolution : 16 bits
Stream size : 126 MiB (16%)
Language : English
Encoded date : UTC 2009-02-19 01:25:18
Tagged date : UTC 2009-02-19 06:55:47

related torrents

Torrent name

health leech seeds Size
 

comments (0)

Main Menu